Синяя комната / La chambre bleue / The Blue Room (Матьё Амальрик / Mathieu Amalric) [2014, Франция, Триллер, Криминал, Драма, DVD9 (Custom)] VO (PashaUp) + Sub Por, Eng, Deu, Rus (Playball) + Original Fra :: Ивановский Торрент трекер
Важное объявление!
У Нас Все раздачи мультитрекерные, при нуле пиров в релизах, можете смело вставать на закачку!
Статистика раздачи
Размер:     |    Зарегистрирован:     |    Скачан:     |   
Нет
 
     
 
 
Автор Сообщение

HUNTER

Стаж:
4 года 11 месяцев
Сообщений:
66054

Репутация: 101

[+] [-]
Вне форума [Профиль] [ЛС]

Синяя комната / La chambre bleue / The Blue Room
Страна:ФранцияСтудия:Alfama Films, Arte France, arte France Cinema, Canal+ [fr], Centre National du Cinema et de L'image Animee (CNC), Cine, Cofinova 10, Film(s), Georges Simenon Limited, Region des Pays-de-la-Loire.Жанр:Триллер, Криминал, ДрамаГод выпуска:2014
Продолжительность:01:12:02Перевод:Одноголосый (закадровый) PashaUpCубтитры:Португальские, Английские, Немецкие, Русские PlayballОригинальная аудио дорожка:Французский
Премьера (мир):16.05.2014
Режиссер:Матьё Амальрик / Mathieu AmalricВ ролях:Матьё Амальрик, Леа Дрюкер, Стефани Клео, Лоран Пуатрено, Серж Бозон, Блатч, Mona Jaffart, Вероника Ален, Paul Kramer, Ален Фрайтаг
Описание:Тайно влюбленные мужчина и женщина остаются одни в комнате. Они желают друг друга и проявляют взаимную нежность. Мужчине кажется, что между ними ничего не было. Теперь мужчина оказывается под следствием. Но в чем его обвиняют? [img]https://rating.kinopoisk.ru/803792.gif[/img]Доп. информация:Диск найден в сети.Одноголосый (закадровый) PashaUpвзяты из раздачи donlego33-[url=viewtopic.php?t=4947406]http://rutracker.org/forum/viewtopic.php?t=4947406[/url].Русские субтитры Playballвзяты из раздачи Playball-[url=viewtopic.php?t=4946213]http://rutracker.org/forum/viewtopic.php?t=4946213[/url].Огромное Спасибо Всем, без чьей помощи этот релиз не состоялся бы!Сценарий:Стефани Клео, Матьё Амальрик, Жорж СименонПродюсер:Паулу Бранку, Реми Бура, Оливье ПереОператор:Кристоф БокарнКомпозитор:Грегуар ХецельХудожник:Christophe Offret, Дороти ГироМонтаж:Франсуа Гедижье

Это интересно

Амальрик, Матьё-[url=https://ru.wikipedia.org/wiki/Амальрик,_Матьё]https://ru.wikipedia.org/wiki/Амальрик,_Матьё[/url]
Фильм-[url=https://fr.wikipedia.org/wiki/La_Chambre_bleue_(film)]https://fr.wikipedia.org/wiki/La_Chambre_bleue_(film)[/url]

Награды и номинации


Рецензия

Софт

PgcDemux 1.2.0.5 - разделение компонентов диска на файлы.
BeLight - AC3 -> Wav. Sound Forge pro 10 - синхронизация звука
Subtitle Workshop, MaestroSBT, SubtitleCreator, DVD SubEdit (субтитры).
MuxMan DVD authoring Professional 0.16.8 - мультиплексирование и авторинг.
DVDRemake Pro 3.6.4 - реавторинг DVD.
DVD Shrink 3.2 - Сэмпл.
--

Бонусы:(Без перевода)

. Интервью с режиссером.
. Трейлер
Меню:Португальский, Английский, Французский, Немецкий, анимированное, озвученное.Сэмпл фильм:https://www.sendspace.com/file/ka1loqТип релиза:DVD9 (Custom)
Контейнер:DVD-Video
Видео:PAL 4:3 (720x576) VBR, 7300 Кбит/сек, 25,000 кадров/секАудио 1:Французский:AC3, 6 ch, 48.0 KHz, 384 Кбит/сек / (Оригинал)Аудио 2:Русский:AC3, 2 ch, 48.0 KHz, 192 Кбит/сек / Одноголосый (закадровый) PashaUp
Формат субтитров:prerendered (DVD/IDX+SUB)

Dvd Info

Title: La chambre bleue DVD-9_Custom
Size: 6.07 Gb ( 6 368 394,00 KBytes ) - DVD-9
Enabled regions: 1, 2, 3, 4, 5, 6, 7, 8
VTS_01 :
Play Length: 01:12:02
Video: PAL 4:3 (720x576) VBR
Audio:
Francais (Dolby AC3, 6 ch)
Russian (Dolby AC3, 2 ch)
Subtitles:
Portugues
English
Deutsch
Russian
VTS_02 :
Play Length: 00:00:28
Video: PAL 16:9 (720x576) VBR, Auto Letterboxed
Audio:
Francais (Dolby AC3, 2 ch)
Subtitles:
Portugues
English
Deutsch
VTS_03 :
Play Length: 00:00:05+00:00:05+{00:00:05}+{00:00:05}
Video: PAL 16:9 (720x576) VBR, Auto Letterboxed
Audio:
English (Dolby AC3, 2 ch)
VTS_04 :
Play Length: 00:08:38+00:11:05+00:13:46
Video: PAL 16:9 (720x576) VBR, Auto Letterboxed
Audio:
Francais (Dolby AC3, 2 ch)
Subtitles:
Portugues
English
Deutsch

Mediainfo

Общее
Полное имя : F:\La chambre bleue DVD-9_Custom\VIDEO_TS\VTS_01_2.VOB
Формат : MPEG-PS
Размер файла : 1024 Мбайт
Продолжительность : 17 м.
Режим общего битрейта : Переменный
Общий поток : 8036 Кбит/сек
Видео
Идентификатор : 224 (0xE0)
Формат : MPEG Video
Версия формата : Version 2
Профиль формата : Main@Main
Параметр BVOP формата : Да
Параметр матрицы формата : Выборочная
Параметр GOP формата : Variable
Структура изображения : Frame
Продолжительность : 17 м.
Вид битрейта : Переменный
Битрейт : 7300 Кбит/сек
Максимальный битрейт : 9000 Кбит/сек
Ширина : 720 пикселей
Высота : 576 пикселей
Соотношение сторон : 4:3
Частота кадров : 25,000 кадров/сек
Стандарт вещания : PAL
Цветовое пространство : YUV
Субдискретизация насыщенности : 4:2:0
Битовая глубина : 8 бит
Тип развёртки : Чересстрочная
Порядок развёртки : Верхнее поле первое
Метод сжатия : С потерями
Бит/(Пиксели*Кадры) : 0.704
Временной код первого кадра : 10:18:55:08
Оригинал временного кода : Group of pictures header
GOP, открыто/закрыто : Открыто
Размер потока : 930 Мбайт (91%)
Аудио #1
Идентификатор : 189 (0xBD)-128 (0x80)
Формат : AC-3
Формат/Информация : Audio Coding 3
Расширение режима : CM (complete main)
Параметр Endianness формата : Big
Режим смешивания : DVD-Video
Продолжительность : 17 м.
Вид битрейта : Постоянный
Битрейт : 384 Кбит/сек
Каналы : 6 каналов
Расположение каналов : Front: L C R, Side: L R, LFE
Частота : 48,0 КГц
Частота кадров : 31,250 кадров/сек (1536 spf)
Метод сжатия : С потерями
Задержка видео : -456 мс.
Размер потока : 48,9 Мбайт (5%)
Аудио #2
Идентификатор : 189 (0xBD)-129 (0x81)
Формат : AC-3
Формат/Информация : Audio Coding 3
Расширение режима : CM (complete main)
Параметр Endianness формата : Big
Режим смешивания : DVD-Video
Продолжительность : 17 м.
Вид битрейта : Постоянный
Битрейт : 192 Кбит/сек
Каналы : 2 канала
Расположение каналов : Front: L R
Частота : 48,0 КГц
Частота кадров : 31,250 кадров/сек (1536 spf)
Метод сжатия : С потерями
Задержка видео : -392 мс.
Размер потока : 24,5 Мбайт (2%)
Текст #1
Идентификатор : 189 (0xBD)-32 (0x20)
Формат : RLE
Формат/Информация : Run-length encoding
Режим смешивания : DVD-Video
Текст #2
Идентификатор : 189 (0xBD)-33 (0x21)
Формат : RLE
Формат/Информация : Run-length encoding
Режим смешивания : DVD-Video
Текст #3
Идентификатор : 189 (0xBD)-34 (0x22)
Формат : RLE
Формат/Информация : Run-length encoding
Режим смешивания : DVD-Video
Текст #4
Идентификатор : 189 (0xBD)-35 (0x23)
Формат : RLE
Формат/Информация : Run-length encoding
Режим смешивания : DVD-Video

Скриншоты меню


Скриншоты

Скриншоты доп. материалов


Релиз: Уважаемые пользователи!Найдите пару минут поблагодарить релизера и высказаться в топике раздачи.Ваше мнение - бальзам для раздающего и пища для ума остальным пользователям.[url=tracker.php?rid=15912358/]Мои раздачи[/url]

_________________
Показать сообщения:    

Текущее время: Сегодня 02:07

Часовой пояс: GMT



Вы не можете начинать темы
Вы не можете отвечать на сообщения
Вы не можете редактировать свои сообщения
Вы не можете удалять свои сообщения
Вы не можете голосовать в опросах
Вы не можете прикреплять файлы к сообщениям
Вы не можете скачивать файлы