Важное объявление!
У Нас Все раздачи мультитрекерные, при нуле пиров в релизах, можете смело вставать на закачку!
Статистика раздачи
Размер:     |    Зарегистрирован:     |    Скачан:     |   
Нет
 
     
 
 
Автор Сообщение

HUNTER

Стаж:
5 лет
Сообщений:
67935

Репутация: 101

[+] [-]
Вне форума [Профиль] [ЛС]

Синьор Робинзон /
Il signor Robinson,
mostruosa storia d'amore e d'avventure
-Страна: Италия
Студия: Vides Cinematografica
Жанр: мелодрама, комедия, приключения
Год выпуска: 1976
Продолжительность: 01:47:59
Перевод 1: Профессиональный (многоголосый закадровый) | PTP
Перевод 2: Профессиональный (двухголосый закадровый) | HTB (Н.Варлей, Б.Токарев)
Перевод 3: Профессиональный (дублированный) | Советский дубляж со вставками MVO
Оригинальная аудиодорожка: итальянский
Cубтитры: русские
Режиссер: Серджио Корбуччи / Sergio Corbucci
В ролях: Паоло Вилладжо, Зеуди Арая Кристальди, Перси Хоган, Анна Ногара
Описание: Робинзон Крузо проходит через множество комичных ситуаций, пока ему не удается хоть как-то освоиться на острове. У него появляется даже Пятница — только на этот раз это темнокожая красавица, с которой Робинзон поначалу тщетно пытается найти общий язык.
Современный Робинзон не хочет отказываться от благ цивилизации и придумывает, как заменить телевизор, радио и все то, без чего в наше время трудно представить свою жизнь…- [img]https://rating.kinopoisk.ru/103384.gif[/img]
Видеоряд от: HDReactor
Тип релиза: BDRip 720p
Контейнер: MKV
Видео: 1280x692 at 24.000 fps, x264@L4.1, ~7140 kbps avg
Аудио 1: Russian: 48 kHz, AC3, 2/0 (L,R), ~192 kbps avg |Многоголосый закадровый, PTP |
Аудио 2: Russian: 48 kHz, AC3, 2/0 (L,R), ~192 kbps avg |Двухголосый закадровый, HTB (Н.Варлей, Б.Токарев)|
Аудио 3: Russian: 48 kHz, AC3, 2/0 (L,R), ~192 kbps avg |Советский дубляж со вставками MVO на вырезанные сцены|
Аудио 4: Italian: 48 kHz, AC3, 2/0 (L,R), ~192 kbps avg |Original|
Cубтитры: Russian
Цитата:
Цитата:

  • За рип и синхронизацию русских звуковых дорожек РТР и НТВ спасибо Вадик38
Торрент обновлён: Аудио дорожка №3 заменена на более качественную. 2016-10-02

MediaInfo + x264

x264 [info]: frame I:1103 Avg QP:17.67 size:159188
x264 [info]: frame P:34082 Avg QP:20.05 size: 68644
x264 [info]: frame B:120325 Avg QP:21.30 size: 27162
General
Unique ID : 229315537366379880075140794542037064361 (0xAC8490E63598D0DCA3272C9273BADAA9)
Complete name : D:\Il.signor.Robinson.1976.BDRip.720p.3xRus.Ita.-HDReactor.mkv
Format : Matroska
Format version : Version 4 / Version 2
File size : 5.97 GiB
Duration : 1 h 47 min
Overall bit rate : 7 910 kb/s
Movie name : Синьор Робинзон / Il signor Robinson, mostruosa storia d'amore e d'avventure (1976)
Encoded date : UTC 2016-10-02 05:35:59
Writing application : mkvmerge v9.4.2 ('So High') 64bit
Writing library : libebml v1.3.4 + libmatroska v1.4.5
Cover : Yes
Attachments : cover_2.jpg / xlog.txt / cover.jpg
Video
ID : 1
Format : AVC
Format/Info : Advanced Video Codec
Format profile : High@L4.1
Format settings, CABAC : Yes
Format settings, ReFrames : 9 frames
Codec ID : V_MPEG4/ISO/AVC
Duration : 1 h 47 min
Bit rate : 7 140 kb/s
Width : 1 280 pixels
Height : 692 pixels
Display aspect ratio : 1.85:1
Frame rate mode : Constant
Frame rate : 24.000 FPS
Color space : YUV
Chroma subsampling : 4:2:0
Bit depth : 8 bits
Scan type : Progressive
Bits/(Pixel*Frame) : 0.336
Stream size : 5.39 GiB (90%)
Title : Синьор Робинзон / Il signor Robinson, mostruosa storia d'amore e d'avventure (1976) BDRip 720p -=HDReactor=-
Writing library : x264 core 148 r2705 3f5ed56
Encoding settings : cabac=1 / ref=9 / deblock=1:-3:-3 / analyse=0x3:0x133 / me=umh / subme=11 / psy=1 / psy_rd=1.00:0.00 / mixed_ref=1 / me_range=32 / chroma_me=1 / trellis=2 / 8x8dct=1 / cqm=0 / deadzone=21,11 / fast_pskip=0 / chroma_qp_offset=-2 / threads=12 / lookahead_threads=1 / sliced_threads=0 / nr=0 / decimate=0 / interlaced=0 / bluray_compat=0 / constrained_intra=0 / bframes=8 / b_pyramid=2 / b_adapt=2 / b_bias=0 / direct=2 / weightb=1 / open_gop=0 / weightp=2 / keyint=240 / keyint_min=24 / scenecut=40 / intra_refresh=0 / rc=2pass / mbtree=0 / bitrate=7140 / ratetol=1.0 / qcomp=0.60 / qpmin=0 / qpmax=69 / qpstep=4 / cplxblur=20.0 / qblur=0.5 / ip_ratio=1.30 / pb_ratio=1.20 / aq=3:0.85
Language : English
Default : Yes
Forced : No
Audio #1
ID : 2
Format : AC-3
Format/Info : Audio Coding 3
Mode extension : CM (complete main)
Format settings, Endianness : Big
Codec ID : A_AC3
Duration : 1 h 47 min
Bit rate mode : Constant
Bit rate : 192 kb/s
Channel(s) : 2 channels
Channel positions : Front: L R
Sampling rate : 48.0 kHz
Frame rate : 31.250 FPS (1536 spf)
Compression mode : Lossy
Stream size : 148 MiB (2%)
Title : МVO, PTP
Language : Russian
Default : Yes
Forced : No
Audio #2
ID : 3
Format : AC-3
Format/Info : Audio Coding 3
Mode extension : CM (complete main)
Format settings, Endianness : Big
Codec ID : A_AC3
Duration : 1 h 47 min
Bit rate mode : Constant
Bit rate : 192 kb/s
Channel(s) : 2 channels
Channel positions : Front: L R
Sampling rate : 48.0 kHz
Frame rate : 31.250 FPS (1536 spf)
Compression mode : Lossy
Stream size : 148 MiB (2%)
Title : DVO, HTB (Н.Варлей, Б.Токарев)
Language : Russian
Default : No
Forced : No
Audio #3
ID : 4
Format : AC-3
Format/Info : Audio Coding 3
Mode extension : CM (complete main)
Format settings, Endianness : Big
Codec ID : A_AC3
Duration : 1 h 47 min
Bit rate mode : Constant
Bit rate : 192 kb/s
Channel(s) : 2 channels
Channel positions : Front: L R
Sampling rate : 48.0 kHz
Frame rate : 31.250 FPS (1536 spf)
Compression mode : Lossy
Stream size : 148 MiB (2%)
Title : DUB + MVO
Language : Russian
Default : No
Forced : No
Audio #4
ID : 5
Format : AC-3
Format/Info : Audio Coding 3
Mode extension : CM (complete main)
Format settings, Endianness : Big
Codec ID : A_AC3
Duration : 1 h 47 min
Bit rate mode : Constant
Bit rate : 192 kb/s
Channel(s) : 2 channels
Channel positions : Front: L R
Sampling rate : 48.0 kHz
Frame rate : 31.250 FPS (1536 spf)
Compression mode : Lossy
Stream size : 148 MiB (2%)
Language : Italian
Default : No
Forced : No
Text
ID : 6
Format : UTF-8
Codec ID : S_TEXT/UTF8
Codec ID/Info : UTF-8 Plain Text
Duration : 1 h 45 min
Bit rate : 70 b/s
Count of elements : 737
Stream size : 54.5 KiB (0%)
Language : Russian
Default : No
Forced : No
Menu
00:00:00.000 : :Chapter 1
00:08:35.958 : :Chapter 2
00:18:13.333 : :Chapter 3
00:27:50.542 : :Chapter 4
00:36:42.708 : :Chapter 5
00:44:43.000 : :Chapter 6
00:54:15.000 : :Chapter 7
01:06:29.708 : :Chapter 8
01:14:19.792 : :Chapter 9
01:21:47.333 : :Chapter 10
01:34:09.542 : :Chapter 11
01:46:39.458 : :Chapter 12

Скриншоты




Знаете ли вы, что...

  • Полное название — «Синьор Робинзон, потрясающая история любви и приключений».
  • Фильм занимает 16-е место по посещаемости среди зарубежных лент в советском кинопрокате.

_________________
Показать сообщения:    

Текущее время: Сегодня 08:57

Часовой пояс: GMT



Вы не можете начинать темы
Вы не можете отвечать на сообщения
Вы не можете редактировать свои сообщения
Вы не можете удалять свои сообщения
Вы не можете голосовать в опросах
Вы не можете прикреплять файлы к сообщениям
Вы не можете скачивать файлы