Важное объявление!
У Нас Все раздачи мультитрекерные, при нуле пиров в релизах, можете смело вставать на закачку!
Статистика раздачи
Размер:     |    Зарегистрирован:     |    Скачан:     |   
Нет
 
     
 
 
Автор Сообщение

димитри37

Стаж:
4 года 4 месяца
Сообщений:
1236

Репутация: 127

[+] [-]
Вне форума [Профиль] [ЛС]

Синьор Робинзон / Il Signor Robinson
mostruosa storia d'amore e d'avventure
Наименование: Синьор Робинзон
Оригинальное наименование: Il Signor Robinson
Страна: Италия
Жанр: комедия
Год выпуска: 1976
Продолжительность: 01:43:17
Перевод 1: Профессиональный (полное дублирование) (советский дубляж)
Перевод 2: Профессиональный (многоголосый закадровый)
Cубтитры: русские
Оригинальная аудиодорожка: итальянский
Режиссер: Серджио Корбуччи / Sergio Corbucci
В ролях: Паоло Вилладжио (Paolo Villaggio), Зеуди Арая (Zeudi Araya Cristaldi), Анна Ногара (Anna Nogara), Перси Хоган (Percy Hogan)
Описание: Пародия на классическое произведение Даниеля Дефо "Робинзон Крузо", рассказывающее о драматической судьбе жертвы кораблекрушения на необитаемом острове. Современный Робинзон оказывается на том же самом острове, что и его предшественник. Но поскольку в роли Робинзона выступает реальный итальянский комик Паоло Вилладжио, эпическая драма превращается в уморительную комедию.

Качество видео: DVDRip-AVC
Формат видео: MKV
Видео: 698x408@746x408 (1,83:1), 25 fps, AVC (H.264) ~1439 kbps avg, 0.202 bit/pixel
Аудио 1: Russian: 48 kHz, AC3, 2/0 (L,R) ch, ~192 kbps avg (дубляж)
Аудио 2: Russian: 48 kHz, AC3, 2/0 (L,R) ch, ~192 kbps avg (многоголосый)
Аудио 3: Italian: 48 kHz, AC3, 2/0 (L,R) ch, ~192 kbps avg (оригинал)
Формат субтитров: softsub (SRT)

MediaInfo

Общее
Уникальный идентификатор : 172998805501988775632901308477077441621 (0x82265BA4F79D2B788043FA75B27FCC55)
Полное имя : D:\КИНО\Синьор Робинзон.mkv
Формат : Matroska
Версия формата : Version 2
Размер файла : 1,46 Гбайт
Продолжительность : 1 ч. 43 м.
Общий поток : 2018 Кбит/сек
Дата кодирования : UTC 2012-02-28 14:18:46
Программа кодирования : mkvmerge v5.2.1 ('A Far Off Place') built on Jan 2 2012 23:21:10
Библиотека кодирования : libebml v1.2.3 libmatroska v1.3.0
Видео
Идентификатор : 1
Формат : AVC
Формат/Информация : Advanced Video Codec
Профиль формата : High@L4.1
Параметр CABAC формата : Да
Параметр ReFrames формата : 16 кадров
Идентификатор кодека : V_MPEG4/ISO/AVC
Продолжительность : 1 ч. 43 м.
Битрейт : 1439 Кбит/сек
Ширина : 746 пикселей
Высота : 408 пикселей
Соотношение сторон : 16:9
Соотношение сторон в оригинале : 16:9
Частота кадров : 25,000 кадров/сек
Цветовое пространство : YUV
Субдискретизация насыщенности : 4:2:0
Битовая глубина : 8 бит
Тип развёртки : Прогрессивная
Бит/(Пиксели*Кадры) : 0.202
Размер потока : 1,01 Гбайт (69%)
Библиотека кодирования : x264 core 120 r2164 da19765
Настройки программы : cabac=1 / ref=16 / deblock=1:-2:-1 / analyse=0x3:0x133 / me=umh / subme=10 / psy=1 / psy_rd=1.00:0.10 / mixed_ref=1 / me_range=24 / chroma_me=1 / trellis=2 / 8x8dct=1 / cqm=0 / deadzone=21,11 / fast_pskip=1 / chroma_qp_offset=-3 / threads=3 / sliced_threads=0 / nr=0 / decimate=1 / interlaced=0 / bluray_compat=0 / constrained_intra=0 / bframes=8 / b_pyramid=0 / b_adapt=2 / b_bias=0 / direct=3 / weightb=1 / open_gop=0 / weightp=2 / keyint=250 / keyint_min=25 / scenecut=40 / intra_refresh=0 / rc_lookahead=60 / rc=2pass / mbtree=1 / bitrate=1439 / ratetol=1.0 / qcomp=0.60 / qpmin=10 / qpmax=51 / qpstep=4 / cplxblur=20.0 / qblur=0.5 / vbv_maxrate=50000 / vbv_bufsize=50000 / nal_hrd=none / ip_ratio=1.40 / aq=1:1.00
Default : Да
Forced : Нет
Аудио #1
Идентификатор : 2
Формат : AC-3
Формат/Информация : Audio Coding 3
Расширение режима : CM (complete main)
Идентификатор кодека : A_AC3
Продолжительность : 1 ч. 43 м.
Вид битрейта : Постоянный
Битрейт : 192 Кбит/сек
Каналы : 2 канала
Расположение каналов : Front: L R
Частота : 48,0 КГц
Битовая глубина : 16 бит
Метод сжатия : С потерями
Размер потока : 142 Мбайт (10%)
Язык : Russian
Default : Да
Forced : Нет
Аудио #2
Идентификатор : 3
Формат : AC-3
Формат/Информация : Audio Coding 3
Расширение режима : CM (complete main)
Идентификатор кодека : A_AC3
Продолжительность : 1 ч. 43 м.
Вид битрейта : Постоянный
Битрейт : 192 Кбит/сек
Каналы : 2 канала
Расположение каналов : Front: L R
Частота : 48,0 КГц
Битовая глубина : 16 бит
Метод сжатия : С потерями
Размер потока : 142 Мбайт (10%)
Язык : Russian
Default : Нет
Forced : Нет
Аудио #3
Идентификатор : 4
Формат : AC-3
Формат/Информация : Audio Coding 3
Расширение режима : CM (complete main)
Идентификатор кодека : A_AC3
Продолжительность : 1 ч. 43 м.
Вид битрейта : Постоянный
Битрейт : 192 Кбит/сек
Каналы : 2 канала
Расположение каналов : Front: L R
Частота : 48,0 КГц
Битовая глубина : 16 бит
Метод сжатия : С потерями
Размер потока : 142 Мбайт (10%)
Язык : Italian
Default : Нет
Forced : Нет
Текст
Идентификатор : 5
Формат : UTF-8
Идентификатор кодека : S_TEXT/UTF8
Идентификатор кодека/Информация : UTF-8 Plain Text
Язык : Russian
Default : Нет
Forced : Нет

Скриншот c названием фильма

Скриншоты

-
Показать сообщения:    

Текущее время: Сегодня 08:57

Часовой пояс: GMT



Вы не можете начинать темы
Вы не можете отвечать на сообщения
Вы не можете редактировать свои сообщения
Вы не можете удалять свои сообщения
Вы не можете голосовать в опросах
Вы не можете прикреплять файлы к сообщениям
Вы не можете скачивать файлы