Ивановский Торрент трекер
Яндекс.Погода
 

[Цитировать]
HUNTER

Синбад и Глаз Тигра / Sinbad and the Eye of the Tiger Страна: Великобритания
Жанр: Сказка, экранизация
Год выпуска: 1977
Продолжительность: 01:52:59
Перевод #1: Профессиональный многоголосый закадровый (Позитив-Мультимедиа)
Перевод #2: Авторский одноголосый закадровый (Живов)
Перевод #3: Авторский одноголосый закадровый (Михалёв)
Перевод #4: Авторский одноголосый закадровый (Товбин)
Оригинальная аудиодорожка: Английский
Cубтитры: Русские, Английские
Режиссёр: Сэм Уонамейкер / Sam Wanamaker
В ролях:
Патрик Уэйн / Patrick Wayne, Тэрин Пауэр / Taryn Power, Маргарет Уайтинг / Margaret Whiting, Джейн Сеймур / Jane Seymour, Патрик Тротон / Patrick Troughton
Описание:
Известный мореход Синдбад, держит путь в землю Чарака, чтобы просить руки принцессы Фарах у её брата - принца Касима. Но злая мачеха Касима, колдунья Зенобия превращает принца в бабуина, поскольку он должен скоро стать калифом. Если в течение семи лун Касим не вернется к человеческому облику, то калифом станет её сын Рафи.
Справиться с заклятием Зенобии способен только греческий алхимик Мелантий. Синдбад, Фарах и Касим (в облике бабуина) отправляются в путешествие. На пути их будут ждать невообразимые чудовища, среди которых Минотон – бронзовый колосс, гигантский троглодит, доисторический морж и саблезубый тигр.
Качество видео: BDRip 720p
Формат видео: MKV
Видео: AVC/H264, High@L4.1, 1280x688 (1,85:1), 23,976 fps, 8257 kbps, 0.383 bit/pixel
Аудио #1: Русский: 48 kHz, AC3 5.1, 640 kbps | Многоголосый закадровый (Позитив-Мультимедиа)
Аудио #2: Русский: 48 kHz, AC3 5.1, 640 kbps | Одноголосый (Живов)
Аудио #3: Русский: 48 kHz, AC3 2.0, 192 kbps | Одноголосый (Михалёв)
Аудио #4: Русский: 48 kHz, AC3 2.0, 192 kbps | Одноголосый (Товбин)
Аудио #5: Английский: 48 kHz, AC3 5.1, 640 kbps
Субтитры: Русские, Английские
Дополнительная информация:
Перевод субтитров на русский язык и адаптация - мои-

MediaInfo / x264 log

x264 log (pass 2)
raw [info]: 1280x688p 1:1 @ 24000/1001 fps (cfr)
x264 [info]: using SAR=1/1
x264 [info]: using cpu capabilities: MMX2 SSE2Fast SSSE3 SSE4.2
x264 [info]: profile High, level 4.1
x264 [info]: frame I:1030 Avg QP:17.41 size:104207
x264 [info]: frame P:20261 Avg QP:17.99 size: 59178
x264 [info]: frame B:87710 Avg QP:19.13 size: 38610
x264 [info]: consecutive B-frames: 1.6% 0.9% 3.4% 12.2% 14.8% 48.0% 7.5% 4.2% 2.2% 1.7% 1.3% 1.6% 0.5%
x264 [info]: mb I I16..4: 2.2% 89.6% 8.2%
x264 [info]: mb P I16..4: 0.3% 22.4% 0.8% P16..4: 26.1% 33.8% 14.1% 1.2% 0.0% skip: 1.3%
x264 [info]: mb B I16..4: 0.0% 5.9% 0.1% B16..8: 37.2% 27.0% 6.5% direct:12.5% skip:10.8% L0:45.7% L1:39.4% BI:14.8%
x264 [info]: 8x8 transform intra:95.9% inter:63.2%
x264 [info]: coded y,uvDC,uvAC intra: 97.2% 89.1% 65.0% inter: 64.9% 40.6% 9.1%
x264 [info]: i16 v,h,dc,p: 51% 12% 11% 26%
x264 [info]: i8 v,h,dc,ddl,ddr,vr,hd,vl,hu: 7% 6% 6% 10% 16% 14% 14% 12% 14%
x264 [info]: i4 v,h,dc,ddl,ddr,vr,hd,vl,hu: 7% 5% 3% 10% 18% 17% 15% 12% 13%
x264 [info]: i8c dc,h,v,p: 47% 21% 17% 16%
x264 [info]: Weighted P-Frames: Y:33.5% UV:22.4%
x264 [info]: ref P L0: 39.0% 9.3% 18.1% 9.5% 7.4% 5.6% 4.7% 2.9% 2.7% 0.9% 0.0%
x264 [info]: ref B L0: 63.4% 15.2% 8.3% 4.7% 3.5% 2.9% 1.5% 0.4%
x264 [info]: ref B L1: 89.4% 10.6%
x264 [info]: kb/s:8257.98

MediaInfo

Формат : Matroska
Версия формата : Version 4 / Version 2
Размер файла : 8,37 Гбайт
Продолжительность : 1 ч. 52 м.
Общий поток : 10,6 Мбит/сек
Дата кодирования : UTC 2014-11-19 16:38:26
Программа кодирования : mkvmerge v7.2.0 ('On Every Street') 64bit built on Sep 13 2014 15:52:10
Библиотека кодирования : libebml v1.3.0 + libmatroska v1.4.1
DURATION : 01:48:55.171000000
NUMBER_OF_FRAMES : 846
NUMBER_OF_BYTES : 46140
Видео
Идентификатор : 1
Формат : AVC
Формат/Информация : Advanced Video Codec
Профиль формата : High@L4.1
Параметр CABAC формата : Да
Параметр ReFrames формата : 9 кадров
Идентификатор кодека : V_MPEG4/ISO/AVC
Продолжительность : 1 ч. 52 м.
Битрейт : 8085 Кбит/сек
Ширина : 1280 пикселей
Высота : 688 пикселей
Соотношение сторон : 1,85:1
Режим частоты кадров : Постоянный
Частота кадров : 23,976 кадра/сек
Цветовое пространство : YUV
Субдискретизация насыщенности : 4:2:0
Битовая глубина : 8 бит
Тип развёртки : Прогрессивная
Бит/(Пиксели*Кадры) : 0.383
Размер потока : 6,38 Гбайт (76%)
Заголовок : Синбад и Глаз Тигра / Sinbad and the Eye of the Tiger (1977) © @ndtwice BDRip 720p for RuTracker
Библиотека кодирования : x264 core 142 r2431 ac76440
Настройки программы : cabac=1 / ref=9 / deblock=1:-3:-3 / analyse=0x3:0x133 / me=umh / subme=11 / psy=1 / psy_rd=1.00:0.00 / mixed_ref=1 / me_range=96 / chroma_me=1 / trellis=2 / 8x8dct=1 / cqm=0 / deadzone=21,11 / fast_pskip=0 / chroma_qp_offset=-2 / threads=3 / lookahead_threads=1 / sliced_threads=0 / nr=0 / decimate=0 / interlaced=0 / bluray_compat=0 / constrained_intra=0 / bframes=12 / b_pyramid=2 / b_adapt=2 / b_bias=0 / direct=1 / weightb=1 / open_gop=0 / weightp=2 / keyint=250 / keyint_min=23 / scenecut=40 / intra_refresh=0 / rc=crf / mbtree=0 / crf=17.5 / qcomp=0.75 / qpmin=0 / qpmax=69 / qpstep=4 / ip_ratio=1.20 / pb_ratio=1.15 / aq=1:0.55 / zones=0,520,b=0.5
Язык : English
Default : Да
Forced : Нет
Аудио #1
Идентификатор : 2
Формат : AC-3
Формат/Информация : Audio Coding 3
Расширение режима : CM (complete main)
Параметр Endianness формата : Big
Идентификатор кодека : A_AC3
Продолжительность : 1 ч. 52 м.
Вид битрейта : Постоянный
Битрейт : 640 Кбит/сек
Каналы : 6 каналов
Расположение каналов : Front: L C R, Side: L R, LFE
Частота : 48,0 КГц
Битовая глубина : 16 бит
Метод сжатия : С потерями
Размер потока : 517 Мбайт (6%)
Заголовок : MVO Позитив-Мультимедиа
Язык : Russian
Default : Да
Forced : Нет
Аудио #2
Идентификатор : 3
Формат : AC-3
Формат/Информация : Audio Coding 3
Расширение режима : CM (complete main)
Параметр Endianness формата : Big
Идентификатор кодека : A_AC3
Продолжительность : 1 ч. 52 м.
Вид битрейта : Постоянный
Битрейт : 640 Кбит/сек
Каналы : 6 каналов
Расположение каналов : Front: L C R, Side: L R, LFE
Частота : 48,0 КГц
Битовая глубина : 16 бит
Метод сжатия : С потерями
Размер потока : 517 Мбайт (6%)
Заголовок : AVO Живов
Язык : Russian
Default : Нет
Forced : Нет
Аудио #3
Идентификатор : 4
Формат : AC-3
Формат/Информация : Audio Coding 3
Расширение режима : CM (complete main)
Параметр Endianness формата : Big
Идентификатор кодека : A_AC3
Продолжительность : 1 ч. 52 м.
Вид битрейта : Постоянный
Битрейт : 192 Кбит/сек
Каналы : 2 канала
Расположение каналов : Front: L R
Частота : 48,0 КГц
Битовая глубина : 16 бит
Метод сжатия : С потерями
Размер потока : 155 Мбайт (2%)
Заголовок : AVO Михалёв
Язык : Russian
Default : Нет
Forced : Нет
Аудио #4
Идентификатор : 5
Формат : AC-3
Формат/Информация : Audio Coding 3
Расширение режима : CM (complete main)
Параметр Endianness формата : Big
Идентификатор кодека : A_AC3
Продолжительность : 1 ч. 52 м.
Вид битрейта : Постоянный
Битрейт : 192 Кбит/сек
Каналы : 2 канала
Расположение каналов : Front: L R
Частота : 48,0 КГц
Битовая глубина : 16 бит
Метод сжатия : С потерями
Размер потока : 155 Мбайт (2%)
Заголовок : AVO Толбин
Язык : Russian
Default : Нет
Forced : Нет
Аудио #5
Идентификатор : 6
Формат : AC-3
Формат/Информация : Audio Coding 3
Расширение режима : CM (complete main)
Параметр Endianness формата : Big
Идентификатор кодека : A_AC3
Продолжительность : 1 ч. 52 м.
Вид битрейта : Постоянный
Битрейт : 640 Кбит/сек
Каналы : 6 каналов
Расположение каналов : Front: L C R, Side: L R, LFE
Частота : 48,0 КГц
Битовая глубина : 16 бит
Метод сжатия : С потерями
Размер потока : 517 Мбайт (6%)
Заголовок : Original
Язык : English
Default : Нет
Forced : Нет
Текст #1
Идентификатор : 7
Формат : UTF-8
Идентификатор кодека : S_TEXT/UTF8
Идентификатор кодека/Информация : UTF-8 Plain Text
Заголовок : Subs Rus
Язык : Russian
Default : Да
Forced : Нет
Текст #2
Идентификатор : 8
Формат : UTF-8
Идентификатор кодека : S_TEXT/UTF8
Идентификатор кодека/Информация : UTF-8 Plain Text
Заголовок : Subs Eng
Язык : English
Default : Нет
Forced : Нет

Скриншоты

Сравнение с исходником

http://screenshotcomparison.com/comparison/100837
-Исходник: BD-Remux 1080p (34881 kbps)
Использованы аудиодорожки от Прагматик
-Этот фильм в формате BDRip-AVC 2,91 Gb


Показать сообщения:    

Текущее время: 16-Дек 03:41

Часовой пояс: UTC ± 0


Вы не можете начинать темы
Вы не можете отвечать на сообщения
Вы не можете редактировать свои сообщения
Вы не можете удалять свои сообщения
Вы не можете голосовать в опросах
Вы не можете прикреплять файлы к сообщениям
Вы не можете скачивать файлы

!ВНИМАНИЕ!
Сайт не предоставляет электронные версии произведений, а занимается лишь коллекционированием и каталогизацией ссылок, присылаемых и публикуемых на форуме нашими читателями. Если вы являетесь правообладателем какого-либо представленного материала и не желаете, чтобы ссылка на него находилась в нашем каталоге, свяжитесь с нами, и мы незамедлительно удалим ее. Файлы для обмена на трекере предоставлены пользователями сайта, и администрация не несет ответственности за их содержание. Просьба не заливать файлы, защищенные авторскими правами, а также файлы нелегального содержания!