Ивановский Торрент трекер
Яндекс.Погода
 

[Цитировать]
димитри37

Симпсоны / The Simpsons
Страна: США
Жанр: комедия, сатира
Продолжительность: 00:21:08
Год выпуска: 2013
Перевод: Любительский (многоголосый закадровый)
Русские субтитры: нет
Режиссёр: Мэтт Гроунинг / Matt Groening
Роли озвучивали: Дэн Кастелланета, Хэнк Азариа, Джулия Кавнер, Нэнси Картрайт, Ярдли Смит, Гарри Ширер
Описание: «Си́мпсоны» (англ. The Simpsons) — самый длинный мультсериал в истории американского телевидения, длящийся 25 сезонов. Первая мини-серия «Good night» была показана в «Шоу Трейси Ульман» 19 апреля 1987 года. Демонстрация полноценных серий мультсериала началась 17 декабря 1989 года на канале FOX. Выпускается «Gracie Films» для кинокомпании «20th Century Fox». Мультсериал в настоящее время известен телезрителям более чем 100 стран.
Это насыщенное сатирой (в том числе социальной) шоу высмеивает многие клише и стереотипы, в частности — стиль жизни «среднестатистического американца», особенности мировых культур в целом, знаменитостей и даже само телевидение и телеканал «Fox»; не стесняется затрагивать такие скользкие вопросы, как политика и религия: в частности, поднимались темы однополых браков, борьбы дарвинистов и креационистов, войны в Ираке.
Журнал Time в 1998 году назвал «Симпсонов» лучшим телевизионным сериалом XX века. 27 июля 2007 года в США прошла премьера полнометражного мультфильма с героями сериала, «The Simpsons Movie»; в России фильм получил название «Симпсоны в кино», его выход на экраны состоялся 16 августа 2007 года.
Список серий:
1. «Homerland»
Доп. информация:
Озвучка: Nice-Media
Перевод: Stevvie
Подготовка видео: L0cDoG
Работа со звуком: L0cDoG
Ссылка на предыдущие и альтернативные раздачи: http://rutracker.org/forum/viewforum.php?f=924
Семпл: http://multi-up.com/912089
Качество: WEB-DLRip
Формат: AVI
Видео: Xvid 720x400 23.976fps
Аудио: MP3 48000Hz stereo 128kbps [Russian]
Аудио 2: MP3 48000Hz stereo 128kbps [English]
Субтитры: отсутствуют

Подробные технические данные

GeneralComplete name : C:\Users\Сергей\Videos\The.Simpsons.S25E01.Homerland.WEB-DLRip.Nice-Media.rus.eng.aviFormat : AVIFormat/Info : Audio Video InterleaveFile size : 282 MiBDuration : 21mn 8sOverall bit rate : 1 865 Kbps
VideoID : 0Format : MPEG-4 VisualFormat profile : Advanced Simple@L5Format settings, BVOP : 2Format settings, QPel : NoFormat settings, GMC : No warppointsFormat settings, Matrix : Default (H.263)Codec ID : XVIDCodec ID/Hint : XviDDuration : 21mn 8sBit rate : 1 585 KbpsWidth : 720 pixelsHeight : 400 pixelsDisplay aspect ratio : 16:9Frame rate : 23.976 fpsColor space : YUVChroma subsampling : 4:2:0Bit depth : 8 bitsScan type : ProgressiveCompression mode : LossyBits/(Pixel*Frame) : 0.230Stream size : 240 MiB (85%)Writing library : XviD 1.2.1 (UTC 2008-12-04)
Audio #1ID : 1Format : MPEG AudioFormat version : Version 1Format profile : Layer 3Mode : Joint stereoMode extension : MS StereoCodec ID : 55Codec ID/Hint : MP3Duration : 21mn 8sBit rate mode : ConstantBit rate : 128 KbpsChannel count : 2 channelsSampling rate : 48.0 KHzCompression mode : LossyStream size : 19.4 MiB (7%)Alignment : Aligned on interleavesInterleave, duration : 24 ms (0.58 video frame)
Audio #2ID : 2Format : MPEG AudioFormat version : Version 1Format profile : Layer 3Mode : Joint stereoMode extension : MS StereoCodec ID : 55Codec ID/Hint : MP3Duration : 21mn 8sBit rate mode : ConstantBit rate : 128 KbpsChannel count : 2 channelsSampling rate : 48.0 KHzCompression mode : LossyStream size : 19.4 MiB (7%)Alignment : Aligned on interleavesInterleave, duration : 24 ms (0.58 video frame)

Скриншоты



Показать сообщения:    

Текущее время: 16-Дек 07:32

Часовой пояс: UTC ± 0


Вы не можете начинать темы
Вы не можете отвечать на сообщения
Вы не можете редактировать свои сообщения
Вы не можете удалять свои сообщения
Вы не можете голосовать в опросах
Вы не можете прикреплять файлы к сообщениям
Вы не можете скачивать файлы

!ВНИМАНИЕ!
Сайт не предоставляет электронные версии произведений, а занимается лишь коллекционированием и каталогизацией ссылок, присылаемых и публикуемых на форуме нашими читателями. Если вы являетесь правообладателем какого-либо представленного материала и не желаете, чтобы ссылка на него находилась в нашем каталоге, свяжитесь с нами, и мы незамедлительно удалим ее. Файлы для обмена на трекере предоставлены пользователями сайта, и администрация не несет ответственности за их содержание. Просьба не заливать файлы, защищенные авторскими правами, а также файлы нелегального содержания!