Ивановский Торрент трекер
Яндекс.Погода
 

[Цитировать]
HUNTER

Символика церквей (6 серий) / BBC / Churches: How to Read Them
Дата/Год выпуска: 2010
Страна: Великобритания
Жанр: документальный, познавательный, архитектура, искусство, христианство
Продолжительность: серии по ~ 29 минут
Перевод: Профессиональный (двухголосый закадровый)
Доп. инфо о переводе: ТПО Ред-Медиа
Режиссер: Джонатан Майо / Jonathan Mayo, Карен Селвэй / Karen Selway
Телеканал: 365 дней
Описание: Документальный фильм "Символика церквей" познакомит нас с церквями с архитектурной точки зрения. Церковные колокола оглашали своим звоном средневековую Британию, люди просыпались, молились и работали под их звучание. Христианская церковь регламентировала каждый час жизни прихожан. Она задавала ритм жизни человека от рождения до смерти. Жизнь в средневековых церквях била ключом, зачастую даже в очень непривычном виде. Изначально церковь служила простым прикрытием для алтаря, который был необходим для причащения. Первые церкви были примитивными и грубо построенными. Но Средневековье стало эпохой расцвета церковного зодчества. Передача расскажет о церквях с архитектурно-декоративной точки зрения - что означает церковная символика, как устройство церкви менялось со временем, как они взаимодействовали со светской культурой, как на них влияло развитие общества.
Доп. информация:
...Каждый элемент церкви вызывает новые вопросы: что значит буква M, почему купель находится на западном конце церкви, а алтарь в восточном? Да и зачем вообще нужен алтарь?...В подобных сооружениях воплощена многовековая история. Зайдите в любую церковь - и у вас возникнут такие же вопросы…Мы разучились понимать язык этих строений, и в результате они стали нам казаться загадочными и непонятными. Будучи автором книг о значении церквей, я поставил перед собой задачу расшифровать этот язык, потому что церкви не должны быть загадкой. Они не только построены во славу Господа, но и рассказывают многое о нас самих. В этом цикле передач я расскажу о значении британского христианского искусства и символизма, по-новому взглянув на надежды, страхи и верования наших предков. Я хочу развенчать стереотипы, согласно которым церкви – это лишь пыльные музеи и головоломки для Дэна Брауна. На самом деле в церковных сооружениях заложена восхитительная красота, она присутствует в их цветах, в их просторных помещениях, в их формах. Церковь – это попытка людей, используя все свои скромные умения, создать рай на земле…(Автор и ведущий Ричард Тэйлор)
Сэмпл 1: http://sendfile.su/1125414
Сэмпл 2: http://sendfile.su/1125417
качество: DVB
формат: MPG
Видео: Video: MPEG2 Video 720x576 (4:3) 25fps 15000kbps [V: mpeg2 main, yuv420p, 720x576, 15000 kb/s]
Аудио: Audio: MPEG Audio 48000Hz stereo 192kbps [A: mp2, 48000 Hz, stereo, 192 kb/s]

Список выпусков/серий

1. Сумрачное начало
2. Средневековая Жизнь
3. Средневековое восприятие смерти
4. Реформация: разрушение и создание
5. Реставрация и век разума
6. Викторианская эпоха и все, что было потом

MediaInfo

GeneralComplete name : F:\Символика церквей\6. Викторианская эпоха и все, что было потом.mpgFormat : MPEG-PSFile size : 543 MiBDuration : 29mn 1sOverall bit rate mode : VariableOverall bit rate : 2 615 Kbps
VideoID : 224 (0xE0)Format : MPEG VideoFormat version : Version 2Format profile : Main@MainFormat settings, BVOP : YesFormat settings, Matrix : CustomFormat settings, GOP : VariableFormat settings, picture struc : FrameDuration : 29mn 1sBit rate mode : VariableBit rate : 2 371 KbpsMaximum bit rate : 15.0 MbpsWidth : 720 pixelsHeight : 576 pixelsDisplay aspect ratio : 4:3Frame rate : 25.000 fpsStandard : PALColor space : YUVChroma subsampling : 4:2:0Bit depth : 8 bitsScan type : InterlacedScan order : Top Field FirstCompression mode : LossyBits/(Pixel*Frame) : 0.229Time code of first frame : 00:00:00:00Time code source : Group of pictures headerStream size : 492 MiB (91%)
AudioID : 192 (0xC0)Format : MPEG AudioFormat version : Version 1Format profile : Layer 2Duration : 29mn 1sBit rate mode : ConstantBit rate : 192 KbpsChannel(s) : 2 channelsSampling rate : 48.0 KHzCompression mode : LossyDelay relative to video : 24msStream size : 39.9 MiB (7%)
Другие мои раздачи

Архитектура, недвижимость

Мир русской усадьбы http://rutracker.org/forum/viewtopic.php?t=4914474
Старинные русские усадьбы http://rutracker.org/forum/viewtopic.php?t=4916883
Амбициозный проект Средневековья-Страсбургский собор http://rutracker.org/forum/viewtopic.php?t=4929762
Роман в камне. Архитектурные шедевры мира. Португалия. Замок Слёз. http://rutracker.org/forum/viewtopic.php?t=4932511
Дома георгианской эпохи http://rutracker.org/forum/viewtopic.php?t=4986500
Жилье за миллиард: http://rutracker.org/forum/viewtopic.php?t=4988566
Загородные дома королевской семьи: http://rutracker.org/forum/viewtopic.php?t=4988021
20 Способов повысить стоимость дома http://rutracker.org/forum/viewtopic.php?t=4976430
Охотники за недвижимостью: дома за миллион долларов http://rutracker.org/forum/viewtopic.php?t=4928925
Замки в объективе (Королевские резиденции на экране телевизора): http://rutracker.org/forum/viewtopic.php?t=4991714
80 Лучших садов мира http://rutracker.org/forum/viewtopic.php?t=5008414
Париж: История одной столицы http://rutracker.org/forum/viewtopic.php?t=5014091
Барокко! От собора св.Петра до собора св.Павла http://rutracker.org/forum/viewtopic.php?t=5017799

Живопись

Женский гений живописи http://rutracker.org/forum/viewtopic.php?t=4992548
Барокко! От собора св.Петра до собора св.Павла http://rutracker.org/forum/viewtopic.php?t=5017799
Показать сообщения:    

Текущее время: 19-Окт 22:53

Часовой пояс: UTC - 1


Вы не можете начинать темы
Вы не можете отвечать на сообщения
Вы не можете редактировать свои сообщения
Вы не можете удалять свои сообщения
Вы не можете голосовать в опросах
Вы не можете прикреплять файлы к сообщениям
Вы не можете скачивать файлы

!ВНИМАНИЕ!
Сайт не предоставляет электронные версии произведений, а занимается лишь коллекционированием и каталогизацией ссылок, присылаемых и публикуемых на форуме нашими читателями. Если вы являетесь правообладателем какого-либо представленного материала и не желаете, чтобы ссылка на него находилась в нашем каталоге, свяжитесь с нами, и мы незамедлительно удалим ее. Файлы для обмена на трекере предоставлены пользователями сайта, и администрация не несет ответственности за их содержание. Просьба не заливать файлы, защищенные авторскими правами, а также файлы нелегального содержания!