Ивановский Торрент трекер
Яндекс.Погода
 

[Цитировать]
HUNTER

Сила пяти: старвенжерсы / Force Five: The Starvengers
Страна: США-Япония
Жанр: приключения, фантастика
Продолжительность: 01:44:53
Год выпуска: 1980
Перевод: Одноголосый закадровый - Трамвай-фильм
Русские субтитры: нет
Режиссёр: Коллинс Уокер / Collins Walker
Роли озвучивали: Грег Киркелай, Бетти МакИвор, Коллинс Уокер, Перл Терри, Лаура Камминс, Шон Фейхерти, Боб Линда Кинг, Джим Терри-мл., Мистер Анжело
Описание: Зловещий Император Ремсёрч вторгается на Землю с армией гигантских роботов, противостоять которым могут лишь три бойца на супер-истребителях, сливающихся в одного могучего робота - Старвенжера.
Доп. информация: Американская полнометражная адаптация (feature film) многосерийного анимационного сериала Force Five: Starvengers (который, в свою очередь - адаптация Getter Robo G)
Входила в состав циклов мультсериалов "Сила пяти" наравне с:
Force Five: Gaiking - адаптация Divine Demon-Dragon Gaiking
Force Five: Dangard Ace - адаптация Planetary Robot Danguard Ace
Force Five: Grandizer - адаптация of UFO Robot Grendizer
Force Five: Spaceketeers - адаптация Sci-Fi West Saga Starzinger
По некоторым данным, этот сериал в США находится в общественном достоянии.
Обзор фильма: http://blog.paxholley.net/2014/01/31/scene-by-scene...vengers-cartoon/
Семпл: http://multi-up.com/994657
Качество: VHSRip
Формат: AVI
Видео: XVID, 640x480, 29.970 fps, ~1250 kbps
Аудио: MP3, 44100 Hz, 2 ch, 128 kbps
Субтитры: отсутствуют

Подробные технические данные

GeneralComplete name : /Volumes/MacHD/video/Force_Five_-_Starvengers_Movie.1980.aviFormat : AVIFormat/Info : Audio Video InterleaveFormat profile : OpenDMLFile size : 1.01 GiBDuration : 1h 44mnOverall bit rate : 1 385 Kbps
VideoID : 0Format : MPEG-4 VisualFormat profile : Simple@L3Format settings, BVOP : NoFormat settings, QPel : NoFormat settings, GMC : No warppointsFormat settings, Matrix : Default (H.263)Codec ID : XVIDCodec ID/Hint : XviDDuration : 1h 44mnBit rate : 1 240 KbpsWidth : 640 pixelsHeight : 480 pixelsDisplay aspect ratio : 4:3Frame rate : 29.970 fpsOriginal frame rate : 29.000 fpsColor space : YUVChroma subsampling : 4:2:0Bit depth : 8 bitsScan type : ProgressiveCompression mode : LossyBits/(Pixel*Frame) : 0.135Stream size : 931 MiB (89%)Writing library : XviD 1.2.1 (UTC 2008-12-04)
AudioID : 1Format : MPEG AudioFormat version : Version 1Format profile : Layer 3Mode : Joint stereoMode extension : MS StereoCodec ID : 55Codec ID/Hint : MP3Duration : 1h 44mnBit rate mode : ConstantBit rate : 128 KbpsChannel(s) : 2 channelsSampling rate : 44.1 KHzCompression mode : LossyStream size : 96.1 MiB (9%)Alignment : Aligned on interleavesInterleave, duration : 26 ms (0.78 video frame)Writing library : LAME3.98.2
0 человек читают эту тему: 0 пользователей, 0 скрытых пользователей, 0 гостей

Показать сообщения:    

Текущее время: 23-Авг 16:35

Часовой пояс: UTC - 1


Вы не можете начинать темы
Вы не можете отвечать на сообщения
Вы не можете редактировать свои сообщения
Вы не можете удалять свои сообщения
Вы не можете голосовать в опросах
Вы не можете прикреплять файлы к сообщениям
Вы не можете скачивать файлы

!ВНИМАНИЕ!
Сайт не предоставляет электронные версии произведений, а занимается лишь коллекционированием и каталогизацией ссылок, присылаемых и публикуемых на форуме нашими читателями. Если вы являетесь правообладателем какого-либо представленного материала и не желаете, чтобы ссылка на него находилась в нашем каталоге, свяжитесь с нами, и мы незамедлительно удалим ее. Файлы для обмена на трекере предоставлены пользователями сайта, и администрация не несет ответственности за их содержание. Просьба не заливать файлы, защищенные авторскими правами, а также файлы нелегального содержания!