Ивановский Торрент трекер
Яндекс.Погода
 

[Цитировать]
HUNTER

Сила пяти: старвенжерсы / Force Five: Starvengers
Страна: Япония/США
Год выпуска: 1980 г.
Жанр: приключения, фантастика, меха
Тип: Movie
Продолжительность: 105 мин.
Режиссер: Коллинс Уокер
Студия: Jim Terry Productions, Toei Animation
Описание: Зловещий Император Ремсёрч вторгается на Землю с армией гигантских роботов, противостоять которым могут лишь три бойца на супер-истребителях, сливающихся в одного могучего робота - Старвенжера.
Доп. информация: Американская полнометражная адаптация (feature film) многосерийного анимационного сериала Force Five: Starvengers (который, в свою очередь - адаптация Getter Robo G)
Входила в состав циклов мультсериалов "Сила пяти" наравне с:
Force Five: Gaiking - адаптация Divine Demon-Dragon Gaiking
Force Five: Dangard Ace - адаптация Planetary Robot Danguard Ace
Force Five: Grandizer - адаптация of UFO Robot Grendizer
Force Five: Spaceketeers - адаптация Sci-Fi West Saga Starzinger
По некоторым данным, этот сериал в США находится в общественном достоянии.
Обзор фильма: http://blog.paxholley.net/2014/01/31/scene-by-scene...vengers-cartoon/
Сэмпл: http://multi-up.com/994657
Качество: VHSRip
Тип релиза: Без хардсаба
Формат видео: MKV
Совместимость с бытовыми плеерами: Нет
Видео: XVID, 8 bits, 640x480, 29.970 fps, 1213 kbps
Аудио: MP3, 44100 Hz, 2 ch, 128 kbps Язык Русский (в составе контейнера) ; Озвучка: одноголосая, Трамвай-фильм
Аудио 2: MP3, 48000 Hz, 2 ch, 128 kbps Язык Английский ; Озвучка 2: дубляж, Jim Terry Productions

Подробные тех. данные

GeneralUnique ID : 233510702039508447370387338289926524548 (0xAFAC867CA2882053FC1C52F156E24E84)Complete name : /Volumes/MacHD/video/Force_Five_-_Starvengers_Movie.1980.mkvFormat : MatroskaFormat version : Version 4 / Version 2File size : 1.10 GiBDuration : 1h 44mnOverall bit rate : 1 499 KbpsEncoded date : UTC 2014-08-27 18:11:38Writing application : mkvmerge v6.2.0 ('Promised Land') built on Apr 28 2013 18:50:30Writing library : libebml v1.3.0 + libmatroska v1.4.0
VideoID : 1Format : MPEG-4 VisualFormat profile : Simple@L3Format settings, BVOP : NoFormat settings, QPel : NoFormat settings, GMC : No warppointsFormat settings, Matrix : Default (H.263)Codec ID : V_MS/VFW/FOURCC / XVIDCodec ID/Hint : XviDDuration : 1h 44mnBit rate : 1 213 KbpsWidth : 640 pixelsHeight : 480 pixelsDisplay aspect ratio : 4:3Frame rate mode : ConstantFrame rate : 29.970 fpsOriginal frame rate : 29.000 fpsColor space : YUVChroma subsampling : 4:2:0Bit depth : 8 bitsScan type : ProgressiveCompression mode : LossyBits/(Pixel*Frame) : 0.132Stream size : 910 MiB (81%)Writing library : XviD 1.2.1 (UTC 2008-12-04)Language : RussianDefault : YesForced : No
Audio #1ID : 2Format : MPEG AudioFormat version : Version 1Format profile : Layer 3Mode : Joint stereoMode extension : MS StereoCodec ID : A_MPEG/L3Codec ID/Hint : MP3Duration : 1h 44mnBit rate mode : ConstantBit rate : 128 KbpsChannel(s) : 2 channelsSampling rate : 44.1 KHzCompression mode : LossyStream size : 96.0 MiB (9%)Title : Трамвай-фильмWriting library : LAME3.98.2Language : RussianDefault : YesForced : Yes
Audio #2ID : 3Format : MPEG AudioFormat version : Version 1Format profile : Layer 3Mode : Joint stereoMode extension : MS StereoCodec ID : A_MPEG/L3Codec ID/Hint : MP3Duration : 1h 44mnBit rate mode : ConstantBit rate : 128 KbpsChannel(s) : 2 channelsSampling rate : 48.0 KHzCompression mode : LossyStream size : 96.0 MiB (9%)Title : English DubLanguage : EnglishDefault : NoForced : No


Показать сообщения:    

Текущее время: 17-Дек 16:05

Часовой пояс: UTC ± 0


Вы не можете начинать темы
Вы не можете отвечать на сообщения
Вы не можете редактировать свои сообщения
Вы не можете удалять свои сообщения
Вы не можете голосовать в опросах
Вы не можете прикреплять файлы к сообщениям
Вы не можете скачивать файлы

!ВНИМАНИЕ!
Сайт не предоставляет электронные версии произведений, а занимается лишь коллекционированием и каталогизацией ссылок, присылаемых и публикуемых на форуме нашими читателями. Если вы являетесь правообладателем какого-либо представленного материала и не желаете, чтобы ссылка на него находилась в нашем каталоге, свяжитесь с нами, и мы незамедлительно удалим ее. Файлы для обмена на трекере предоставлены пользователями сайта, и администрация не несет ответственности за их содержание. Просьба не заливать файлы, защищенные авторскими правами, а также файлы нелегального содержания!