Важное объявление!
У Нас Все раздачи мультитрекерные, при нуле пиров в релизах, можете смело вставать на закачку!
 
Автор Сообщение

HUNTER

Стаж:
4 года 6 месяцев
Сообщений:
60950

Репутация: 101

[+] [-]
Вне форума [Профиль] [ЛС]

Сила одиночки / A Force of One-Год выпуска: 1979
Страна: США
Жанр: Боевик
Продолжительность: 01:30:57
Перевод 1: Профессиональный (многоголосый закадровый) НТВ
Перевод 2: Профессиональный (многоголосый закадровый) ОРТ
Перевод 3: Профессиональный (многоголосый закадровый) СТС
Перевод 4: Авторский (одноголосый закадровый) Гаврилов
Перевод 5: Авторский (одноголосый закадровый) Горчаков
Cубтитры: нет
Оригинальная аудиодорожка: английский
Навигация по главам: есть (24 главы)
Режиссер: Пол Аарон / Paul Aaron
В ролях: Чак Норрис / Chuck Norris, Дженнифер О’Нил / Jennifer O'Neill, Клу Гулагер / Clu Gulager, Рон О`Нил / Ron O'Neal, Билл Уоллес / Bill Wallace, Эрик Ланёвилль / Eric Laneuville, Джеймс Уитмор мл. / James Whitmore Jr, Клинт Ричи / Clint Ritchie, Пепе Серна / Pepe Serna, Рэй Витте / Ray Vitte, Аарон Норрис / Aaron Norris, Майк Норрис / Mike Norris
Описание: В маленьком калифорнийском городке орудует банда тоговцев наркотиками. Помогать полицейским в уничтожении мафии начинает чемпион по каратэ Мэт Лонган. У него к бандитам особый счет: один из преступников убил приемного сына и ученика Логана. Теперь этот бандит — противник Мэта на ринге. А вне ринга — это опаснейший враг полицейских, использующий в борьбе запрещенные приемы.
Качество: BDRip 720p (A_FORCE_OF_ONE_1978_BDREMUX_HDTRACKER)
Формат: MKV
>SAMPLE<
Видео: x264, 1280x720, 23.976 fps, ~7000 kbps avg
Аудио 1: Русский, AC3 2.0, 48 kHz, 192 kbps (многоголосый (НТВ))
Аудио 2: Русский, AC3 2.0, 48 kHz, 192 kbps (многоголосый (OPT))
Аудио 3: Русский, AC3 2.0, 48 kHz, 192 kbps (многоголосый (CTC))
Аудио 4: Русский, AC3 2.0, 48 kHz, 192 kbps (Гаврилов)
Аудио 5: Русский, AC3 2.0, 48 kHz, 192 kbps (Горчаков)
Аудио 6: Английский, AC3 5.1, 48 kHz, 448 kbps Оригинальная озвучка)

Доп. инфо

В исходном Blu-Ray, раздающемся на торрентах, есть несколько битых кадров.

В этой раздаче они заменены на кадры из HDTV

MediaInfo

General
Unique ID : 218619740389832830784016751232427271507 (0xA478A164D985CE66B0259FA76F60A553)
Complete name : D:\++TORRENT++\+++UP+++\Сила одиночки (A Force of One) [1979, BDRip 720p, 3xMVO + 2xAVO + Orig].mkv
Format : Matroska
Format version : Version 2
File size : 5.34 GiB
Duration : 1h 30mn
Overall bit rate : 8 404 Kbps
Encoded date : UTC 2014-07-02 17:40:11
Writing application : mkvmerge v5.8.0 ('No Sleep / Pillow') built on Sep 2 2012 15:37:04
Writing library : libebml v1.2.3 + libmatroska v1.3.0
Attachment : Yes
Video
ID : 1
Format : AVC
Format/Info : Advanced Video Codec
Format profile : High@L4.1
Format settings, CABAC : Yes
Format settings, ReFrames : 8 frames
Codec ID : V_MPEG4/ISO/AVC
Duration : 1h 30mn
Bit rate : 7 000 Kbps
Width : 1 280 pixels
Height : 720 pixels
Display aspect ratio : 16:9
Frame rate : 23.976 fps
Color space : YUV
Chroma subsampling : 4:2:0
Bit depth : 8 bits
Scan type : Progressive
Bits/(Pixel*Frame) : 0.317
Stream size : 4.34 GiB (81%)
Title : A.Force.of.One.1979.BDRip.720p-CactusKnight
Writing library : x264 core 125 r2208 d9d2288
Encoding settings : cabac=1 / ref=8 / deblock=1:-3:-3 / analyse=0x3:0x113 / me=umh / subme=11 / psy=1 / psy_rd=1.10:0.25 / mixed_ref=1 / me_range=32 / chroma_me=1 / trellis=2 / 8x8dct=1 / cqm=0 / deadzone=21,11 / fast_pskip=0 / chroma_qp_offset=-4 / threads=6 / lookahead_threads=1 / sliced_threads=0 / nr=0 / decimate=0 / interlaced=0 / bluray_compat=0 / constrained_intra=0 / bframes=10 / b_pyramid=2 / b_adapt=2 / b_bias=0 / direct=3 / weightb=1 / open_gop=0 / weightp=2 / keyint=250 / keyint_min=23 / scenecut=40 / intra_refresh=0 / rc_lookahead=50 / rc=2pass / mbtree=0 / bitrate=7000 / ratetol=1.0 / qcomp=0.60 / qpmin=0 / qpmax=69 / qpstep=4 / cplxblur=20.0 / qblur=0.5 / vbv_maxrate=50000 / vbv_bufsize=62500 / nal_hrd=none / ip_ratio=1.40 / pb_ratio=1.30 / aq=2:0.80
Language : English
Audio #1
ID : 2
Format : AC-3
Format/Info : Audio Coding 3
Mode extension : CM (complete main)
Codec ID : A_AC3
Duration : 1h 30mn
Bit rate mode : Constant
Bit rate : 192 Kbps
Channel(s) : 2 channels
Channel positions : Front: L R
Sampling rate : 48.0 KHz
Bit depth : 16 bits
Compression mode : Lossy
Stream size : 125 MiB (2%)
Title : HTB
Language : Russian
Audio #2
ID : 3
Format : AC-3
Format/Info : Audio Coding 3
Mode extension : CM (complete main)
Codec ID : A_AC3
Duration : 1h 30mn
Bit rate mode : Constant
Bit rate : 192 Kbps
Channel(s) : 2 channels
Channel positions : Front: L R
Sampling rate : 48.0 KHz
Bit depth : 16 bits
Compression mode : Lossy
Stream size : 125 MiB (2%)
Title : OPT
Language : Russian
Audio #3
ID : 4
Format : AC-3
Format/Info : Audio Coding 3
Mode extension : CM (complete main)
Codec ID : A_AC3
Duration : 1h 30mn
Bit rate mode : Constant
Bit rate : 192 Kbps
Channel(s) : 2 channels
Channel positions : Front: L R
Sampling rate : 48.0 KHz
Bit depth : 16 bits
Compression mode : Lossy
Stream size : 125 MiB (2%)
Title : CTC
Language : Russian
Audio #4
ID : 5
Format : AC-3
Format/Info : Audio Coding 3
Mode extension : CM (complete main)
Codec ID : A_AC3
Duration : 1h 30mn
Bit rate mode : Constant
Bit rate : 192 Kbps
Channel(s) : 2 channels
Channel positions : Front: L R
Sampling rate : 48.0 KHz
Bit depth : 16 bits
Compression mode : Lossy
Stream size : 125 MiB (2%)
Title : Gavrilov
Language : Russian
Audio #5
ID : 6
Format : AC-3
Format/Info : Audio Coding 3
Mode extension : CM (complete main)
Codec ID : A_AC3
Duration : 1h 30mn
Bit rate mode : Constant
Bit rate : 192 Kbps
Channel(s) : 2 channels
Channel positions : Front: L R
Sampling rate : 48.0 KHz
Bit depth : 16 bits
Compression mode : Lossy
Stream size : 125 MiB (2%)
Title : Gorchakov
Language : Russian
Audio #6
ID : 7
Format : AC-3
Format/Info : Audio Coding 3
Mode extension : CM (complete main)
Codec ID : A_AC3
Duration : 1h 30mn
Bit rate mode : Constant
Bit rate : 448 Kbps
Channel(s) : 6 channels
Channel positions : Front: L C R, Side: L R, LFE
Sampling rate : 48.0 KHz
Bit depth : 16 bits
Compression mode : Lossy
Stream size : 291 MiB (5%)
Language : English
Menu
00:00:00.000 : en:Riding High
00:03:05.250 : en:A Bust Gone Wrong
00:04:46.202 : en:Weapon Unknown
00:09:04.500 : en:A Force Of One
00:13:26.722 : en:Teacher Needed
00:15:14.500 : en:Off The Street
00:19:53.984 : en:Emerging Hero
00:22:45.500 : en:Deciding To Help
00:28:00.552 : en:Death Trail
00:33:27.500 : en:Training Begins
00:34:54.300 : en:Philosophy of Discipline
00:40:08.000 : en:Loss Of Friends
00:45:27.250 : en:Investigation
00:47:31.181 : en:On To Something
00:55:29.784 : en:Don't Be a Hero
01:00:32.629 : en:As Good As Dead
01:01:42.200 : en:Never Got a Chance
01:04:29.750 : en:Clue
01:06:59.500 : en:Two Plus Two
01:10:22.259 : en:Suspicion
01:14:45.250 : en:Confirmation
01:18:03.428 : en:Moving In
01:22:39.000 : en:A Force Of Two
01:28:52.250 : en:Credits

Скриншоты


_________________
Показать сообщения:    

Текущее время: Сегодня 03:29

Часовой пояс: GMT



Вы не можете начинать темы
Вы не можете отвечать на сообщения
Вы не можете редактировать свои сообщения
Вы не можете удалять свои сообщения
Вы не можете голосовать в опросах
Вы не можете прикреплять файлы к сообщениям
Вы не можете скачивать файлы
Наши партнеры: интернет магазин Ивановского трикотажа textilla.ru