Важное объявление!
У Нас Все раздачи мультитрекерные, при нуле пиров в релизах, можете смело вставать на закачку!
 
Автор Сообщение

димитри37

Стаж:
4 года 3 месяца
Сообщений:
1236

Репутация: 127

[+] [-]
Вне форума [Профиль] [ЛС]

Сила Веры
Год выпуска: 2013
Производство: Россия, «Студия ПАЛАМЕДА»
Жанр: Мелодрама
Продолжительность: 4х ~ 00:45:00
Субтитры: нет
Режиссёр: Александр Карпиловский
В ролях: Марина Денисова, Никита Салопин, Максим Щёголев, Галина Петрова, Анжелика Агурбаш, Святослав Астрамович, Алеся Пуховая, Дмитрий Пустильник, Инна Коляда
Описание: Тридцатилетняя Вера всю жизнь мечтала стать матерью. Но увы, познать счастье материнства ей не дано. Однажды она обнаруживает, что именно это явилось причиной измены мужа: у него есть другая семья, в которой родился ребенок. Вера думает, что никогда не простит этого поступка. Однако жизнь заставляет ее изменить свое решение: спустя время бывший муж, вместе с новой женой, гибнут в автомобильной катастрофе, а ребенок, явившийся причиной одиночества Веры, остается сиротой.
Сумеет ли героиня полюбить чужое дитя и понять, что мать это не та, кто родила, а та, кто воспитала.
Качество: SATRip
Формат: AVI
Видео кодек: XviD
Аудио кодек: МР3
Видео: 720x400 (1.80:1), 25 fps, XviD build 50 ~1577 kbps avg, 0.22 bit/pixel
Аудио: 48 kHz, MPEG Layer 3, 2 ch, ~192.00 kbps avg

MI

General
Complete name : V:\ftp4\Videos\Sila.Very.02.seriya.XviD.2013.SATRip.Files-x.avi
Format : AVI
Format/Info : Audio Video Interleave
File size : 550 MiB
Duration : 43mn 12s
Overall bit rate : 1 780 Kbps
Writing application : VirtualDubMod 1.5.10.3 | www.virtualdub-fr.org || (build 2550/release)
Writing library : VirtualDubMod build 2550/release
Video
ID : 0
Format : MPEG-4 Visual
Format profile : Advanced Simple@L5
Format settings, BVOP : 1
Format settings, QPel : No
Format settings, GMC : No warppoints
Format settings, Matrix : Default (H.263)
Codec ID : XVID
Codec ID/Hint : XviD
Duration : 43mn 12s
Bit rate : 1 578 Kbps
Width : 720 pixels
Height : 400 pixels
Display aspect ratio : 16:9
Frame rate : 25.000 fps
Color space : YUV
Chroma subsampling : 4:2:0
Bit depth : 8 bits
Scan type : Progressive
Compression mode : Lossy
Bits/(Pixel*Frame) : 0.219
Stream size : 488 MiB (89%)
Writing library : XviD 1.2.1 (UTC 2008-12-04)
Audio
ID : 1
Format : MPEG Audio
Format version : Version 1
Format profile : Layer 3
Codec ID : 55
Codec ID/Hint : MP3
Duration : 43mn 12s
Bit rate mode : Constant
Bit rate : 192 Kbps
Channel(s) : 2 channels
Sampling rate : 48.0 KHz
Compression mode : Lossy
Stream size : 59.3 MiB (11%)
Alignment : Aligned on interleaves
Interleave, duration : 40 ms (1.00 video frame)
Interleave, preload duration : 504 ms
Writing library : LAME3.98r
Encoding settings : -m s -V 4 -q 2 -lowpass 18.6 -b 192

Скриншоты

-
Показать сообщения:    

Текущее время: Сегодня 15:31

Часовой пояс: GMT



Вы не можете начинать темы
Вы не можете отвечать на сообщения
Вы не можете редактировать свои сообщения
Вы не можете удалять свои сообщения
Вы не можете голосовать в опросах
Вы не можете прикреплять файлы к сообщениям
Вы не можете скачивать файлы