Важное объявление!
У Нас Все раздачи мультитрекерные, при нуле пиров в релизах, можете смело вставать на закачку!
 
Автор Сообщение

HUNTER

Стаж:
4 года 6 месяцев
Сообщений:
60950

Репутация: 101

[+] [-]
Вне форума [Профиль] [ЛС]

Серебряная стрела / Silver Streak
Страна: США
Студия: Frank Yablans Presentations, Twentieth Century Fox Film Corporation
Жанр: Приключения, Детектив, Комедия
Год выпуска: 1976
Продолжительность: 01:53:37
Перевод 1: Профессиональный (многоголосый закадровый) - 1-й канал
Перевод 2: Профессиональный (двухголосый закадровый) - Ульпаней Эль-Ром
Перевод 3: Профессиональный (двухголосый закадровый) - НТВ+
Перевод 4: Авторский (одноголосый закадровый) - А. Михалев
Cубтитры: английские
Оригинальная аудиодорожка: английский
Режиссер: Артур Хиллер / Arthur Hiller
В ролях: Джин Уайлдер, Джилл Клэйберг, Ричард Прайор, Пэтрик МакГуэн, Нед Битти, Клифтон Джеймс, Рэй Уолстон, Стефан Гираш, Лен Бирман, Валери Кёртин, Люсиль Бенсон, Скэтмэн Крозерс (Gene Wilder, Jill Clayburgh, Richard Pryor, Patrick McGoohan, Ned Beatty, Clifton James, Ray Walston, Stefan Gierasch, Len Birman, Valerie Curtin, Lucille Benson, Scatman Crothers)
Описание: Садясь в трансамериканский экспресс "Серебряная стрела", Джордж Колдуэлл и не предполагал, что ему предстоит не спокойная поездка до Чикаго с чтением книжки и разглядыванием проплывающих в окне пейзажей, а водоворот погонь и смертельно опасных кульбитов с перестрелками, встреча с прелестной блондинкой, противостояние с шайкой мошенников и убийц и еще целая череда смешных и невероятных встреч и событий.
Доп. информация: Автор рипа - AmPirCo. Добавлены четыре русские дорожки: многоголосый перевод 1-го канала ("Селена Интернэшнл") - собственная запись; двухголосый перевод студии Ульпаней Эль-Ром (Израиль), взятый из раздачи mrrfrost; двухголосый перевод НТВ+ и авторский перевод А. Михалева, взятые из раздачи waldis2. Большое спасибо всем предоставившим материалы! Сохранено разбиение на главы оригинального BD.
Сэмпл
Тип релиза: BDRip 1080p
Контейнер: MKV
Видео: 1920x1040p, 23,976 fps, x264, 12840 kbps
Аудио 1: Russian - MVO 1-й канал (Dolby AC3, 2 ch) 192 Kbps / 48 000 Hz
Аудио 2: Russian - DVO Ульпаней Эль-Ром (Dolby AC3, 2 ch) 192 Kbps / 48 000 Hz
Аудио 3: Russian - DVO НТВ+ (Dolby AC3, 2 ch) 192 Kbps / 48 000 Hz
Аудио 4: Russian - Михалев (Dolby AC3, 2 ch) 192 Kbps / 48 000 Hz
Аудио 5: English (Dolby AC3, 6 ch) 640 Kbps / 48 000 Hz
Субтитры: English

MediaInfo

Общее
Уникальный идентификатор : 171692777758537282181307740055285694343 (0x812AD38151F5B708A38AEE71A56A7F87)
Полное имя : Silver.Streak.(1976).BDRip.1080p.x264.AC3.RUS.ENG.mkv
Формат : Matroska
Версия формата : Version 4 / Version 2
Размер файла : 11,3 Гбайт
Продолжительность : 1 ч. 53 м.
Общий поток : 14,3 Мбит/сек
Название фильма : Silver Streak (1976) BDRip 1080p
Дата кодирования : UTC 2014-10-19 14:20:07
Программа кодирования : mkvmerge v7.2.0 ('On Every Street') 32bit built on Sep 13 2014 15:42:11
Библиотека кодирования : libebml v1.3.0 + libmatroska v1.4.1
DURATION : 01:53:36.832000000
NUMBER_OF_FRAMES : 213026
NUMBER_OF_BYTES : 163603968
_STATISTICS_WRITING_APP : mkvmerge v7.2.0 ('On Every Street') 32bit built on Sep 13 2014 15:42:11
_STATISTICS_WRITING_DATE_UTC : 2014-10-19 14:20:07
_STATISTICS_TAGS : BPS DURATION NUMBER_OF_FRAMES NUMBER_OF_BYTES
Видео
Идентификатор : 1
Формат : AVC
Формат/Информация : Advanced Video Codec
Профиль формата : High@L4.1
Параметр CABAC формата : Да
Параметр ReFrames формата : 4 кадра
Идентификатор кодека : V_MPEG4/ISO/AVC
Продолжительность : 1 ч. 53 м.
Битрейт : 12,8 Мбит/сек
Ширина : 1920 пикселей
Высота : 1040 пикселей
Соотношение сторон : 1,85:1
Режим частоты кадров : Постоянный
Частота кадров : 23,976 кадра/сек
Цветовое пространство : YUV
Субдискретизация насыщенности : 4:2:0
Битовая глубина : 8 бит
Тип развёртки : Прогрессивная
Бит/(Пиксели*Кадры) : 0.268
Размер потока : 9,97 Гбайт (88%)
Библиотека кодирования : x264 core 142 r2431 ac76440
Настройки программы : cabac=1 / ref=4 / deblock=1:-3:-3 / analyse=0x3:0x113 / me=umh / subme=9 / psy=1 / psy_rd=1.10:0.00 / mixed_ref=1 / me_range=32 / chroma_me=1 / trellis=2 / 8x8dct=1 / cqm=0 / deadzone=21,11 / fast_pskip=0 / chroma_qp_offset=-2 / threads=6 / lookahead_threads=1 / sliced_threads=0 / nr=0 / decimate=1 / interlaced=0 / bluray_compat=0 / constrained_intra=0 / bframes=6 / b_pyramid=2 / b_adapt=2 / b_bias=0 / direct=3 / weightb=1 / open_gop=0 / weightp=2 / keyint=240 / keyint_min=23 / scenecut=40 / intra_refresh=0 / rc=2pass / mbtree=0 / bitrate=12840 / ratetol=1.0 / qcomp=0.60 / qpmin=10 / qpmax=51 / qpstep=4 / cplxblur=20.0 / qblur=0.5 / ip_ratio=1.40 / pb_ratio=1.30 / aq=1:1.00
Язык : English
Default : Да
Forced : Нет
DURATION : 01:53:36.852000000
NUMBER_OF_FRAMES : 163441
NUMBER_OF_BYTES : 10942303338
_STATISTICS_WRITING_APP : mkvmerge v7.2.0 ('On Every Street') 32bit built on Sep 13 2014 15:42:11
_STATISTICS_WRITING_DATE_UTC : 2014-10-19 14:20:07
_STATISTICS_TAGS : BPS DURATION NUMBER_OF_FRAMES NUMBER_OF_BYTES
Аудио #1
Идентификатор : 2
Формат : AC-3
Формат/Информация : Audio Coding 3
Расширение режима : CM (complete main)
Параметр Endianness формата : Big
Идентификатор кодека : A_AC3
Продолжительность : 1 ч. 53 м.
Вид битрейта : Постоянный
Битрейт : 192 Кбит/сек
Каналы : 2 канала
Расположение каналов : Front: L R
Частота : 48,0 КГц
Битовая глубина : 16 бит
Метод сжатия : С потерями
Размер потока : 156 Мбайт (1%)
Заголовок : 1-й канал
Язык : Russian
Default : Да
Forced : Нет
Аудио #2
Идентификатор : 3
Формат : AC-3
Формат/Информация : Audio Coding 3
Расширение режима : CM (complete main)
Параметр Endianness формата : Big
Идентификатор кодека : A_AC3
Продолжительность : 1 ч. 53 м.
Вид битрейта : Постоянный
Битрейт : 192 Кбит/сек
Каналы : 2 канала
Расположение каналов : Front: L R
Частота : 48,0 КГц
Битовая глубина : 16 бит
Метод сжатия : С потерями
Размер потока : 156 Мбайт (1%)
Заголовок : Ульпаней Эль-Ром
Язык : Russian
Default : Нет
Forced : Нет
Аудио #3
Идентификатор : 4
Формат : AC-3
Формат/Информация : Audio Coding 3
Расширение режима : CM (complete main)
Параметр Endianness формата : Big
Идентификатор кодека : A_AC3
Продолжительность : 1 ч. 53 м.
Вид битрейта : Постоянный
Битрейт : 192 Кбит/сек
Каналы : 2 канала
Расположение каналов : Front: L R
Частота : 48,0 КГц
Битовая глубина : 16 бит
Метод сжатия : С потерями
Размер потока : 156 Мбайт (1%)
Заголовок : НТВ
Язык : Russian
Default : Нет
Forced : Нет
Аудио #4
Идентификатор : 5
Формат : AC-3
Формат/Информация : Audio Coding 3
Расширение режима : CM (complete main)
Параметр Endianness формата : Big
Идентификатор кодека : A_AC3
Продолжительность : 1 ч. 53 м.
Вид битрейта : Постоянный
Битрейт : 192 Кбит/сек
Каналы : 2 канала
Расположение каналов : Front: L R
Частота : 48,0 КГц
Битовая глубина : 16 бит
Метод сжатия : С потерями
Размер потока : 156 Мбайт (1%)
Заголовок : Михалев
Язык : Russian
Default : Нет
Forced : Нет
Аудио #5
Идентификатор : 6
Формат : AC-3
Формат/Информация : Audio Coding 3
Расширение режима : CM (complete main)
Параметр Endianness формата : Big
Идентификатор кодека : A_AC3
Продолжительность : 1 ч. 53 м.
Вид битрейта : Постоянный
Битрейт : 640 Кбит/сек
Каналы : 6 каналов
Расположение каналов : Front: L C R, Side: L R, LFE
Частота : 48,0 КГц
Битовая глубина : 16 бит
Метод сжатия : С потерями
Размер потока : 520 Мбайт (4%)
Заголовок : Original
Язык : English
Default : Нет
Forced : Нет
Текст
Идентификатор : 7
Формат : UTF-8
Идентификатор кодека : S_TEXT/UTF8
Идентификатор кодека/Информация : UTF-8 Plain Text
Язык : English
Default : Нет
Forced : Нет
Меню
00:00:00.000 : en:00:00:00.000
00:12:08.102 : en:00:12:08.102
00:21:59.902 : en:00:21:59.902
00:33:28.965 : en:00:33:28.965
00:42:16.492 : en:00:42:16.492
00:54:47.326 : en:00:54:47.326
01:02:57.607 : en:01:02:57.607
01:11:50.389 : en:01:11:50.389
01:19:38.607 : en:01:19:38.607
01:29:58.768 : en:01:29:58.768
01:42:46.452 : en:01:42:46.452
01:51:38.692 : en:01:51:38.692

Скриншоты


_________________
Показать сообщения:    

Текущее время: Сегодня 10:54

Часовой пояс: GMT



Вы не можете начинать темы
Вы не можете отвечать на сообщения
Вы не можете редактировать свои сообщения
Вы не можете удалять свои сообщения
Вы не можете голосовать в опросах
Вы не можете прикреплять файлы к сообщениям
Вы не можете скачивать файлы
Наши партнеры: интернет магазин Ивановского трикотажа textilla.ru