Важное объявление!
У Нас Все раздачи мультитрекерные, при нуле пиров в релизах, можете смело вставать на закачку!
 
Автор Сообщение

HUNTER

Стаж:
4 года 8 месяцев
Сообщений:
62020

Репутация: 101

[+] [-]
Вне форума [Профиль] [ЛС]

Сергей Смирнов. Рассказы о героях. 6 фильмов.
-
Производство: Подготовлено к эфиру ГТРК "Культура" из архивов Гостелерадиофонда РФ и государственного архива кинофотодокументов.
Страна: Россия
Год выпуска: 2013

Продолжительность: Общая ~02:27:00 (По отдельности см. под спойлером в описании каждой серии)
Язык: Русский
Автор: Сергей Смирнов.
-
Качество: IPTVRip
Формат: AVI
Видео кодек: XviD
Аудио кодек: mp3
Видео: 704x528 (1.33:1), 25 fps, XviD build 50 ~2100 kbps avg, 0.23 bit/pixel
Аудио: 48 kHz, MPEG Layer 3, 2 ch, ~128.00 kbps avg
-
Описание:
9 мая 2013 года на телеканале «Россия К» состоялся показ документальных исследований русского советского писателя, историка, радио- и телеведущего Сергея Сергеевича Смирнова. В этих фильмах Сергей Сергеевич рассказывает о простых солдатах и офицерах Великой отечественной войны, чьи подвиги стали поистине героическими. Сергей Смирнов не понаслышке знает, что такое война. Доброволец истребительного батальона, он окончил школу снайперов под Москвой. В 1942 окончил училище зенитной артиллерии в Уфе, с января 1943 был командиром взвода 23-й зенитно-артиллерийской дивизии. Много писал о Брестской крепости, дружил с писателем Борисом Васильевым, который в своих книгах использовал документальные исследования Сергея Смирнова.
-

Ольга Енько

Сергей Смирнов беседует с Ольгой Енько - участницей подполья в годы войны в городе Малинине Житомирской области.
Енько вспоминает о создании подполья, о борьбе с оккупантами, о товарищах по подполью. Рассказывает об аресте подпольной группы, о побеге из плена.
Продолжительность: 00:30:41

MediaInfo

GeneralComplete name : K:\Документальные\Сергей Смирнов. Рассказы о героях\Сергей Смирнов. Рассказы о героях. Ольга Енько.aviFormat : AVIFormat/Info : Audio Video InterleaveFile size : 490 MiBDuration : 30mn 41sOverall bit rate : 2 231 KbpsWriting application : VirtualDubMod 1.5.10.3 | www.virtualdub-fr.org || (build 2550/release)Writing library : VirtualDubMod build 2550/release
VideoID : 0Format : MPEG-4 VisualFormat profile : Advanced Simple@L5Format settings, BVOP : 2Format settings, QPel : NoFormat settings, GMC : No warppointsFormat settings, Matrix : Default (H.263)Codec ID : DX50Codec ID/Hint : DivX 5Duration : 30mn 41sBit rate : 2 094 KbpsWidth : 704 pixelsHeight : 528 pixelsDisplay aspect ratio : 4:3Frame rate : 25.000 fpsColor space : YUVChroma subsampling : 4:2:0Bit depth : 8 bitsScan type : ProgressiveCompression mode : LossyBits/(Pixel*Frame) : 0.225Stream size : 459 MiB (94%)Writing library : XviD 1.2.1 (UTC 2008-12-04)
AudioID : 1Format : MPEG AudioFormat version : Version 1Format profile : Layer 3Codec ID : 55Codec ID/Hint : MP3Duration : 30mn 40sBit rate mode : ConstantBit rate : 128 KbpsChannel(s) : 2 channelsSampling rate : 48.0 KHzCompression mode : LossyStream size : 28.1 MiB (6%)Alignment : Aligned on interleavesInterleave, duration : 40 ms (1.00 video frame)Interleave, preload duration : 504 msWriting library : LAME3.99rEncoding settings : -m s -V 4 -q 2 -lowpass 17 -b 128

Скриншоты

Николай Устинов

Сергей Смирнов рассказывает герое подполья Житомирской области Н.П. Устинове о его биографии - педагога и офицера Советской армии.
Николаю Устинову по заданию руководителя подполья пришлось под вымышленным именем работать полицаем, затем пережить арест и совершить побег из тюрьмы, уйти к партизанам и затем сражаться в рядах Советской Армии.
После войны Устинов работал директором школы в поселке Орловка в Казахстане.
Продолжительность: 00:25:11

MediaInfo

GeneralComplete name : K:\Документальные\Сергей Смирнов. Рассказы о героях\Сергей Смирнов. Рассказы о героях. Николай Устинов.aviFormat : AVIFormat/Info : Audio Video InterleaveFile size : 388 MiBDuration : 24mn 12sOverall bit rate : 2 240 KbpsWriting application : VirtualDubMod 1.5.10.3 | www.virtualdub-fr.org || (build 2550/release)Writing library : VirtualDubMod build 2550/release
VideoID : 0Format : MPEG-4 VisualFormat profile : Advanced Simple@L5Format settings, BVOP : 2Format settings, QPel : NoFormat settings, GMC : No warppointsFormat settings, Matrix : Default (H.263)Codec ID : DX50Codec ID/Hint : DivX 5Duration : 24mn 11sBit rate : 2 103 KbpsWidth : 704 pixelsHeight : 528 pixelsDisplay aspect ratio : 4:3Frame rate : 25.000 fpsColor space : YUVChroma subsampling : 4:2:0Bit depth : 8 bitsScan type : ProgressiveCompression mode : LossyBits/(Pixel*Frame) : 0.226Stream size : 364 MiB (94%)Writing library : XviD 1.2.1 (UTC 2008-12-04)
AudioID : 1Format : MPEG AudioFormat version : Version 1Format profile : Layer 3Codec ID : 55Codec ID/Hint : MP3Duration : 24mn 12sBit rate mode : ConstantBit rate : 128 KbpsChannel(s) : 2 channelsSampling rate : 48.0 KHzCompression mode : LossyStream size : 22.2 MiB (6%)Alignment : Aligned on interleavesInterleave, duration : 40 ms (1.00 video frame)Interleave, preload duration : 504 msWriting library : LAME3.99rEncoding settings : -m s -V 4 -q 2 -lowpass 17 -b 128

Скриншоты

Эльбрус

Рассказ о подвиге альпинистов, организовавших эвакуацию полутора тысяч мирных жителей из Баксанского ущелья на Кавказе в Сванетию через трудный горный перевал Бечо.
В программе принимают участие заслуженный тренер по альпинизму А.И. Сидоренко и Ю.В. Одноблюдов. Они вспоминают подробности труднейшего перехода, а затем штурма Эльбруса в 1943 году, о водружении советского флага на вершине.
В финале передачи звучит песня "Баксанская" в исполнении Юрия Визбора.
Продолжительность: 00:26:25

MediaInfo

GeneralComplete name : K:\Документальные\Сергей Смирнов. Рассказы о героях\Сергей Смирнов. Рассказы о героях. Эльбрус.aviFormat : AVIFormat/Info : Audio Video InterleaveFile size : 422 MiBDuration : 26mn 24sOverall bit rate : 2 233 KbpsWriting application : VirtualDubMod 1.5.10.3 | www.virtualdub-fr.org || (build 2550/release)Writing library : VirtualDubMod build 2550/release
VideoID : 0Format : MPEG-4 VisualFormat profile : Advanced Simple@L5Format settings, BVOP : 2Format settings, QPel : NoFormat settings, GMC : No warppointsFormat settings, Matrix : Default (H.263)Codec ID : DX50Codec ID/Hint : DivX 5Duration : 26mn 24sBit rate : 2 095 KbpsWidth : 704 pixelsHeight : 528 pixelsDisplay aspect ratio : 4:3Frame rate : 25.000 fpsColor space : YUVChroma subsampling : 4:2:0Bit depth : 8 bitsScan type : ProgressiveCompression mode : LossyBits/(Pixel*Frame) : 0.225Stream size : 396 MiB (94%)Writing library : XviD 1.2.1 (UTC 2008-12-04)
AudioID : 1Format : MPEG AudioFormat version : Version 1Format profile : Layer 3Codec ID : 55Codec ID/Hint : MP3Duration : 26mn 24sBit rate mode : ConstantBit rate : 128 KbpsChannel(s) : 2 channelsSampling rate : 48.0 KHzCompression mode : LossyStream size : 24.2 MiB (6%)Alignment : Aligned on interleavesInterleave, duration : 40 ms (1.00 video frame)Interleave, preload duration : 504 msWriting library : LAME3.99rEncoding settings : -m s -V 4 -q 2 -lowpass 17 -b 128

Скриншоты

Александр Колесников

Рассказ о юном герое разведчике Александре Колесникове, прототипе Ивана из повести Юрия Богомолова и фильма Андрея Тарковского.
В фильме герой погибает, а в жизни 12 летнего Сашу успевают спасти разведчики...
Продолжительность: 00:18:40

MediaInfo

GeneralComplete name : K:\Документальные\Сергей Смирнов. Рассказы о героях\Сергей Смирнов. Рассказы о героях. Александр Колесников.aviFormat : AVIFormat/Info : Audio Video InterleaveFile size : 299 MiBDuration : 18mn 39sOverall bit rate : 2 238 KbpsWriting application : VirtualDubMod 1.5.10.3 | www.virtualdub-fr.org || (build 2550/release)Writing library : VirtualDubMod build 2550/release
VideoID : 0Format : MPEG-4 VisualFormat profile : Advanced Simple@L5Format settings, BVOP : 2Format settings, QPel : NoFormat settings, GMC : No warppointsFormat settings, Matrix : Default (H.263)Codec ID : DX50Codec ID/Hint : DivX 5Duration : 18mn 39sBit rate : 2 100 KbpsWidth : 704 pixelsHeight : 528 pixelsDisplay aspect ratio : 4:3Frame rate : 25.000 fpsColor space : YUVChroma subsampling : 4:2:0Bit depth : 8 bitsScan type : ProgressiveCompression mode : LossyBits/(Pixel*Frame) : 0.226Stream size : 280 MiB (94%)Writing library : XviD 1.2.1 (UTC 2008-12-04)
AudioID : 1Format : MPEG AudioFormat version : Version 1Format profile : Layer 3Codec ID : 55Codec ID/Hint : MP3Duration : 18mn 39sBit rate mode : ConstantBit rate : 128 KbpsChannel(s) : 2 channelsSampling rate : 48.0 KHzCompression mode : LossyStream size : 17.1 MiB (6%)Alignment : Aligned on interleavesInterleave, duration : 40 ms (1.00 video frame)Interleave, preload duration : 504 msWriting library : LAME3.99rEncoding settings : -m s -V 4 -q 2 -lowpass 17 -b 128

Скриншоты

Николай Орлов

Рассказ о тяжелых боях на Волховском фронте, о гибели Второй Ударной армии в районе станции "Мясной бор", где в 1942 году были окружены и уничтожены наши войска.
Герой программы - местный житель Николай Орлов. После войны он сам обезвредил около 5000 мин в местах боев в "Долине смерти". Орлов самостоятельно захоронил останки бойцов, занимался поиском родственников погибших солдат.
Продолжительность: 00:22:36

MediaInfo

GeneralComplete name : K:\Документальные\Сергей Смирнов. Рассказы о героях\Сергей Смирнов. Рассказы о героях. Николай Орлов.aviFormat : AVIFormat/Info : Audio Video InterleaveFile size : 362 MiBDuration : 22mn 35sOverall bit rate : 2 238 KbpsWriting application : VirtualDubMod 1.5.10.3 | www.virtualdub-fr.org || (build 2550/release)Writing library : VirtualDubMod build 2550/release
VideoID : 0Format : MPEG-4 VisualFormat profile : Advanced Simple@L5Format settings, BVOP : 2Format settings, QPel : NoFormat settings, GMC : No warppointsFormat settings, Matrix : Default (H.263)Codec ID : DX50Codec ID/Hint : DivX 5Duration : 22mn 35sBit rate : 2 100 KbpsWidth : 704 pixelsHeight : 528 pixelsDisplay aspect ratio : 4:3Frame rate : 25.000 fpsColor space : YUVChroma subsampling : 4:2:0Bit depth : 8 bitsScan type : ProgressiveCompression mode : LossyBits/(Pixel*Frame) : 0.226Stream size : 339 MiB (94%)Writing library : XviD 1.2.1 (UTC 2008-12-04)
AudioID : 1Format : MPEG AudioFormat version : Version 1Format profile : Layer 3Codec ID : 55Codec ID/Hint : MP3Duration : 22mn 35sBit rate mode : ConstantBit rate : 128 KbpsChannel(s) : 2 channelsSampling rate : 48.0 KHzCompression mode : LossyStream size : 20.7 MiB (6%)Alignment : Aligned on interleavesInterleave, duration : 40 ms (1.00 video frame)Interleave, preload duration : 504 msWriting library : LAME3.99rEncoding settings : -m s -V 4 -q 2 -lowpass 17 -b 128

Скриншоты

Иван Грозный

Героем этого выпуска Сергея Смирнова становится руководитель партизанского отряда Иван Грозный. Он, действительно, был грозой фашистов. Сражался Иван Иванович в районе Псковской, Новгородской и Ленинградской областей. И. Грозный - истинно народный герой - рассказывал Смирнову о жизни партизан о борьбе с врагом.
Продолжительность: 00:25:08

MediaInfo

GeneralComplete name : K:\Документальные\Сергей Смирнов. Рассказы о героях\Сергей Смирнов. Рассказы о героях. Иван Грозный.aviFormat : AVIFormat/Info : Audio Video InterleaveFile size : 402 MiBDuration : 25mn 7sOverall bit rate : 2 235 KbpsWriting application : VirtualDubMod 1.5.10.3 | www.virtualdub-fr.org || (build 2550/release)Writing library : VirtualDubMod build 2550/release
VideoID : 0Format : MPEG-4 VisualFormat profile : Advanced Simple@L5Format settings, BVOP : 2Format settings, QPel : NoFormat settings, GMC : No warppointsFormat settings, Matrix : Default (H.263)Codec ID : DX50Codec ID/Hint : DivX 5Duration : 25mn 7sBit rate : 2 097 KbpsWidth : 704 pixelsHeight : 528 pixelsDisplay aspect ratio : 4:3Frame rate : 25.000 fpsColor space : YUVChroma subsampling : 4:2:0Bit depth : 8 bitsScan type : ProgressiveCompression mode : LossyBits/(Pixel*Frame) : 0.226Stream size : 377 MiB (94%)Writing library : XviD 1.2.1 (UTC 2008-12-04)
AudioID : 1Format : MPEG AudioFormat version : Version 1Format profile : Layer 3Codec ID : 55Codec ID/Hint : MP3Duration : 25mn 7sBit rate mode : ConstantBit rate : 128 KbpsChannel(s) : 2 channelsSampling rate : 48.0 KHzCompression mode : LossyStream size : 23.0 MiB (6%)Alignment : Aligned on interleavesInterleave, duration : 40 ms (1.00 video frame)Interleave, preload duration : 504 msWriting library : LAME3.99rEncoding settings : -m s -V 4 -q 2 -lowpass 17 -b 128

Скриншоты


-
Не забываем говорить "спасибо".

_________________
Показать сообщения:    

Текущее время: Сегодня 14:03

Часовой пояс: GMT



Вы не можете начинать темы
Вы не можете отвечать на сообщения
Вы не можете редактировать свои сообщения
Вы не можете удалять свои сообщения
Вы не можете голосовать в опросах
Вы не можете прикреплять файлы к сообщениям
Вы не можете скачивать файлы
Наши партнеры: интернет магазин Ивановского трикотажа textilla.ru