Важное объявление!
У Нас Все раздачи мультитрекерные, при нуле пиров в релизах, можете смело вставать на закачку!
 
Автор Сообщение

димитри37

Стаж:
3 года 11 месяцев
Сообщений:
1236

Репутация: 127

[+] [-]
Вне форума [Профиль] [ЛС]

Семь стариков и одна девушка
Жанр: комедия
Год выпуска: 1968
Продолжительность: 01:17:55
Режиссёр: Евгений Карелов
В ролях: Светлана Савёлова, Валентин Смирнитский, Борис Чирков, Борис Новиков, Николай Парфёнов, Алексей Смирнов, Анатолий Адоскин, Александр Бениаминов, Евгений Весник, Георгий Вицин, Юрий Никулин, Евгений Моргунов, Анатолий Папанов, Нина Агапова, Георгий Тусузов, Татьяна Бестаева, Петр Савин, Анатолий Обухов, Эмилия (Эмма) Трейвас, Валентина Березуцкая, Яков Ленц, Елена Рубцова, Виктор Филиппов, Людмила Цветкова, Иван Турченков, Александр Павлов, Галина Малиновская, Валя Иванов, Алевтина Румянцева, Евгений Марков, Анастас Смоленский
Описание: Молодой тренер Лена Величко, девушка симпатичная и честолюбивая, мечтает о блестящей карьере, о воспитанниках-чемпионах. Однако, в спорткомплексе, куда она попадает на работу по распределению, ее для начала назначают методистом в оздоровительную группу для мужчин среднего и пожилого возраста, состоящую из шести представителей "боевого отряда физически маломощных хлипаков" (как говорилось в те годы в одной из миниатюр Аркадия Райкина). Досаде и разочарованию тренера нет предела. Она хочет уволиться по собственному желанию, но директор спорткомплекса ее не отпускает, требует, чтобы отработала положенный срок. А уволить ее - как молодого специалиста - нельзя по закону. И тогда влюбленный в Лену молодой человек - студент-заочник Володя Тюпин - решает ей помочь...
Доп. информация: Предпоследняя работа в кино актрисы Светланы Савёловой.
Сценарий: Евгений Карелов, Альберт Иванов
Оператор: Сергей Зайцев
Художник: Михаил Карташов
Композитор: Евгений Птичкин
Текст песни: Михаил Пляцковский
Исполнение: вокальный квартет "Аккорд" ("Совершите чудо")

Качество видео: SATRip
Формат видео: AVI
Видео: 704x528 (1.33:1), 25 fps, XviD 64, 2400 kbps avg, 0.26 bit/pixel
Аудио: 48 kHz, AC3 Dolby Digital, 2/0 (L,R) ch, 192 kbps

Интересные факты

  • В фильме присутствует совершенно ничем не прикрытая реклама бочкового пива.
  • В ленту вмонтирован переозвученный фрагмент из комедии Андрэ Юнебеля «Фантомас разбушевался», в котором Луи де Фюнеса дублирует Владимир Кенигсон.
  • В сцене погони за Фантомасом, кроме фрагментов из оригинала, присутствуют специально доснятые сцены, - например, крупный план Фантомаса внутри колокола, эпизод со взрывом и другие.

Чтобы помнили...

Она снялась всего в семи фильмах. В 1960 году режиссер Яков Сегель начал работу над фильмом «Прощайте, голуби!» и никак не мог подобрать актрису на главную роль. И вот в аптеке за прилавком, в Севастополе, где шли съемки, Сегель увидел Светлану. Так Савёлова попала в кино и сразу стала известной, хотя никогда не мечтала стать актрисой (она собиралась поступать в медицинский). «Прощайте, голуби!» после выхода на экраны получил призы в Локарно и Мельбурне, а в СССР фильм посмотрело более 22 миллионов человек. Светлана поступила в Московское театральное училище имени Щукина. Она училась на одном курсе вместе с Александром Калягиным и Валентином Смирнитским. После окончания училища попала в труппу Московского театра имени Евгения Вахтангова, но в 1966 году получила приглашение стать актрисой Театра имени Ленинского комсомола. Творческая карьера Светланы Савёловой в Ленкоме поначалу складывалась хорошо. А вот с кино обстояло хуже. В 1968 году она снялась в фильме «Семь стариков и одна девушка», который шедевром не назовешь. Ее следующей, последней работой в кино стала роль в фильме «По Руси», где она снова играла вместе с Алексеем Локтевым, с которым ранее снималась в ленте «Прощайте, голуби!» Актёров пригласили в надежде вытянуть заведомо неудачный фильм, но лента провалилась в прокате. И после 1970 года Светлану перестали приглашать сниматься. В Ленкоме Савёлова играла в основном мальчишек и девчонок (травести). Актриса была замкнутым человеком, никогда и никому не показывала своих эмоций. Несмотря на красивую внешность, у неё не складывалась не только карьера, но и личная жизнь: даже её романы кончались ничем, и она вновь оставалась в одиночестве. Детей не было. И Светлана стала пить. В 1990-е годы она исчезла не только со сцены, но из круга своего общения, поменяв квартиру в центре на окраину, чтобы были средства на жизнь. Светлана Ивановна Савёлова скоропостижно скончалась 30 января 1999 года на 58-м году жизни. Ее нашли лишь на третий день, причина смерти не была установлена. Так как родственников не было, организацию похорон взял на себя театр. Прах был захоронен в Москве, в колумбарии Николо-Архангельского кладбища. На похоронах были только служащие театра, а платье на покойную надели из реквизита, так как у неё не оставалось нормальной одежды.

MediaInfo

Полное имя : Sem starikov i odna devushka.avi
Формат : AVI
Формат/Информация : Audio Video Interleave
Размер файла : 1,42 Гбайт
Продолжительность : 1 ч. 17 м.
Общий поток : 2603 Кбит/сек
Программа кодирования : VirtualDubMod 1.5.10.3 (build 2550/release)
Библиотека кодирования : VirtualDubMod build 2550/release
Видео
Идентификатор : 0
Формат : MPEG-4 Visual
Профиль формата : Advanced Simple@L5
Параметр BVOP формата : 2
Параметр QPel формата : Нет
Параметр GMC формата : Без точки перехода
Параметр матрицы формата : Выборочная
Идентификатор кодека : XVID
Идентификатор кодека/Подсказка : XviD
Продолжительность : 1 ч. 17 м.
Битрейт : 2401 Кбит/сек
Ширина : 704 пикселя
Высота : 528 пикселей
Соотношение сторон : 4:3
Частота кадров : 25,000 кадров/сек
Цветовое пространство : YUV
Субдискретизация насыщенности : 4:2:0
Битовая глубина : 8 бит
Тип развёртки : Прогрессивная
Метод сжатия : С потерями
Бит/(Пиксели*Кадры) : 0.258
Размер потока : 1,31 Гбайт (92%)
Библиотека кодирования : XviD 64
Аудио
Идентификатор : 1
Формат : AC-3
Формат/Информация : Audio Coding 3
Расширение режима : CM (complete main)
Параметр Endianness формата : Big
Идентификатор кодека : 2000
Продолжительность : 1 ч. 17 м.
Вид битрейта : Постоянный
Битрейт : 192 Кбит/сек
Каналы : 2 канала
Расположение каналов : Front: L R
Частота : 48,0 КГц
Битовая глубина : 16 бит
Метод сжатия : С потерями
Размер потока : 107 Мбайт (7%)
Выравнивание : Разделение по промежуткам
Продолжительность промежутка : 40 мс. (1,00 видеокадр)
Время предзагрузки промежутка : 500 мс.

Скриншоты названия

-
Показать сообщения:    

Текущее время: Сегодня 19:07

Часовой пояс: GMT



Вы не можете начинать темы
Вы не можете отвечать на сообщения
Вы не можете редактировать свои сообщения
Вы не можете удалять свои сообщения
Вы не можете голосовать в опросах
Вы не можете прикреплять файлы к сообщениям
Вы не можете скачивать файлы
Наши партнеры: интернет магазин Ивановского трикотажа textilla.ru