Важное объявление!
У Нас Все раздачи мультитрекерные, при нуле пиров в релизах, можете смело вставать на закачку!
Статистика раздачи
Размер:     |    Зарегистрирован:     |    Скачан:     |   
Нет
 
     
 
 
Автор Сообщение

HUNTER

Стаж:
5 лет
Сообщений:
68401

Репутация: 101

[+] [-]
Вне форума [Профиль] [ЛС]

Семь периодов жизни звезды / Seven Ages of Starlight
Год выпуска: 2012
Страна: Великобритания
Жанр: Научно-познавательный
Продолжительность: 2х~00:45:00
Перевод: Профессиональный (многоголосый закадровый)
Режиссер: Габи Хорнсби / Gaby Hornsby
Описание: Как нибудь вечером, после заката, присядьте и посмотрите вверх. Вы сможете наблюдать за эпической драмой, в которой участвуют миллиарды актёров - звёзд, у каждой из которых своя история. Престарелые красные гиганты так раздулись, что вот-вот взорвутся. Сверхновые - самые зрелищные объекты во вселенной. Загадочные чёрные дыры - космические надгробные плиты, которые мы только начинаем понимать. А на рассвете мы сможем увидеть звезду в расцвете сил. Изучая жизни и историю этих звёзд учёные разгадали множество тайн вселенной и определили наше место в ней. В конце концов, мы приблизимся к пониманию великих тайн науки. Это рассказ о звёздах.

Автор рипа: Thunder
качество: SATRip
формат: AVI
Видео: Xvid 720x400 25fps 1699kbps
Аудио: Dolby AC3 48000Hz stereo 192kbps

MediaInfo

GeneralComplete name : E:\Films\Dokumentary\BBC Seven Ages of Starlight\BBC.Sem.periodov.zhizni.zvezdy.(1.chast).2012.XviD.SATRip.aviFormat : AVIFormat/Info : Audio Video InterleaveFile size : 617 MiBDuration : 45mn 22sOverall bit rate : 1 902 KbpsWriting application : VirtualDubMod 1.5.10.3 | www.virtualdub-fr.org || (build 2550/release)Writing library : VirtualDubMod build 2550/release
VideoID : 0Format : MPEG-4 VisualFormat profile : Advanced Simple@L5Format settings, BVOP : 2Format settings, QPel : NoFormat settings, GMC : No warppointsFormat settings, Matrix : Default (H.263)Codec ID : XVIDCodec ID/Hint : XviDDuration : 45mn 22sBit rate : 1 700 KbpsWidth : 720 pixelsHeight : 400 pixelsDisplay aspect ratio : 16:9Frame rate : 25.000 fpsColor space : YUVChroma subsampling : 4:2:0Bit depth : 8 bitsScan type : ProgressiveCompression mode : LossyBits/(Pixel*Frame) : 0.236Stream size : 552 MiB (89%)Writing library : XviD 1.2.1 (UTC 2008-12-04)
AudioID : 1Format : AC-3Format/Info : Audio Coding 3Mode extension : CM (complete main)Format settings, Endianness : BigCodec ID : 2000Duration : 45mn 22sBit rate mode : ConstantBit rate : 192 KbpsChannel(s) : 2 channelsChannel positions : Front: L RSampling rate : 48.0 KHzBit depth : 16 bitsCompression mode : LossyStream size : 62.3 MiB (10%)Alignment : Split accross interleavesInterleave, duration : 40 ms (1.00 video frame)Interleave, preload duration : 500 ms

Скриншоты


_________________
Показать сообщения:    

Текущее время: Сегодня 09:54

Часовой пояс: GMT



Вы не можете начинать темы
Вы не можете отвечать на сообщения
Вы не можете редактировать свои сообщения
Вы не можете удалять свои сообщения
Вы не можете голосовать в опросах
Вы не можете прикреплять файлы к сообщениям
Вы не можете скачивать файлы