Ивановский Торрент трекер
Яндекс.Погода
 

[Цитировать]
HUNTER

Семья Джетсонов / Jetsons: The Movie
Страна: США
Жанр: мультфильм, мюзикл, фантастика, комедия, семейный
Продолжительность: 01:22:09
Год выпуска: 1990
Перевод: Профессиональный (многоголосый закадровый)
Перевод 2: Профессиональный (многоголосый закадровый)
Перевод 3: Авторский (одноголосый закадровый)
Перевод 4: Профессиональный (многоголосый закадровый, украинский)
Русские субтитры: нет
Режиссёр: Джозеф Барбера / Joseph Barbera, Уильям Ханна / William Hanna
Роли озвучивали: Джордж О’Хенлон, Мэл Бланк, Пенни Синглтон, Патрик Л. Зиммерман, Дон Мессик, Джин Вандер Пул, Ронни Шелл, Патти Дьютч, Дэна Хилл
Описание: Космические приключения Джорджа Джетсона, которого назначили вице-президентом компании Спейсли Спрокетс, и отправили со своей семьей работать на орбитальный горнорудный астероид…
Доп. информация:
- Оцифровка перевода Вартана Дохалова с VHS сделана bora86bora.
- За Проф перевод с R2 спасибо Ibraghim.
- За Проф перевод с канала СТС спасибо огромное Slink (озвучено "6 канал" Санкт-Петербург по заказу "СТС" 1998 год).
- Проф перевод с канала СТС был немного неудачно записан во время рекламы, поэтому присутсвует 4 вставки с Проф перевода R2.
- Работа со звуком - bora86bora.
- Украинская дорожка взята с сайта hurtom
Качество: DVDRip
Формат: MKV
Видео: AVC | 720x464 | 23.976 (fps), ~5100 kbps
Аудио: AC-3 | 48 Hz | 2 (ch) | 192 (kbps) [русский | закадровый многоголосый | R2]
Аудио 2: AC-3 | 48 Hz | 2 (ch) | 192 (kbps) [русский | закадровый многоголосый | СТС]
Аудио 3: AC-3 | 48 Hz | 2 (ch) | 192 (kbps) [русский | одноголосый закадровый | Дохалов]
Аудио 4: AC-3 | 48 Hz | 2 (ch) | 192 (kbps) [украинский | закадровый многоголосый | Новiй канал]
Аудио 5: AAC | 48 Hz | 2 (ch) | 192 (kbps) [английский]
sample
альтернативные раздачи
Субтитры: отсутствуют

Подробные технические данные

Format : MatroskaFormat version : Version 2File size : 904 MiBDuration : 1h 22mnOverall bit rate : 1 538 KbpsEncoded date : UTC 2013-04-15 12:42:15Writing application : mkvmerge v5.0.1 ('Es ist Sommer') built on Nov 6 2011 16:23:40Writing library : libebml v1.2.2 + libmatroska v1.3.0
VideoID : 1Format : AVCFormat/Info : Advanced Video CodecFormat profile : High@L3.1Format settings, CABAC : YesFormat settings, ReFrames : 10 framesMuxing mode : Header strippingCodec ID : V_MPEG4/ISO/AVCDuration : 1h 22mnWidth : 720 pixelsHeight : 464 pixelsDisplay aspect ratio : 1.903Original display aspect ratio : 1.902Frame rate : 23.976 fpsColor space : YUVChroma subsampling : 4:2:0Bit depth : 8 bitsScan type : ProgressiveWriting library : x264 core 114 r1924 08d04a4Encoding settings : cabac=1 / ref=10 / deblock=1:0:0 / analyse=0x3:0x133 / me=umh / subme=9 / psy=1 / psy_rd=1.00:0.00 / mixed_ref=1 / me_range=16 / chroma_me=1 / trellis=1 / 8x8dct=1 / cqm=0 / deadzone=21,11 / fast_pskip=0 / chroma_qp_offset=-2 / threads=6 / sliced_threads=0 / nr=0 / decimate=1 / interlaced=0 / constrained_intra=0 / bframes=16 / b_pyramid=2 / b_adapt=2 / b_bias=0 / direct=1 / weightb=1 / open_gop=0 / weightp=2 / keyint=250 / keyint_min=23 / scenecut=40 / intra_refresh=0 / rc=cqp / mbtree=0 / qp=24 / ip_ratio=1.40 / pb_ratio=1.30 / aq=0Default : YesForced : No
Audio #1ID : 2Format : AC-3Format/Info : Audio Coding 3Mode extension : CM (complete main)Muxing mode : Header strippingCodec ID : A_AC3Duration : 1h 22mnBit rate mode : ConstantBit rate : 192 KbpsChannel(s) : 2 channelsChannel positions : Front: L RSampling rate : 48.0 KHzBit depth : 16 bitsCompression mode : LossyStream size : 113 MiB (12%)Title : MVO (R5)Language : RussianDefault : YesForced : No
Audio #2ID : 3Format : AC-3Format/Info : Audio Coding 3Mode extension : CM (complete main)Muxing mode : Header strippingCodec ID : A_AC3Duration : 1h 22mnBit rate mode : ConstantBit rate : 192 KbpsChannel(s) : 1 channelChannel positions : Front: CSampling rate : 48.0 KHzBit depth : 16 bitsCompression mode : LossyStream size : 113 MiB (12%)Title : MVO (CTC)Language : RussianDefault : NoForced : No
Audio #3ID : 4Format : AC-3Format/Info : Audio Coding 3Mode extension : CM (complete main)Muxing mode : Header strippingCodec ID : A_AC3Duration : 1h 22mnBit rate mode : ConstantBit rate : 192 KbpsChannel(s) : 2 channelsChannel positions : Front: L RSampling rate : 48.0 KHzBit depth : 16 bitsCompression mode : LossyStream size : 113 MiB (12%)Title : AVO (Дохалов)Language : RussianDefault : NoForced : No
Audio #4ID : 5Format : AC-3Format/Info : Audio Coding 3Mode extension : CM (complete main)Muxing mode : Header strippingCodec ID : A_AC3Duration : 1h 22mnBit rate mode : ConstantBit rate : 192 KbpsChannel(s) : 2 channelsChannel positions : Front: L RSampling rate : 48.0 KHzBit depth : 16 bitsCompression mode : LossyStream size : 113 MiB (12%)Title : MVO (Новiй)Language : UkrainianDefault : NoForced : No
Audio #5ID : 6Format : AACFormat/Info : Advanced Audio CodecFormat profile : HE-AAC / LCCodec ID : A_AACDuration : 1h 22mnChannel(s) : 2 channelsChannel positions : Front: L RSampling rate : 48.0 KHz / 24.0 KHzCompression mode : LossyLanguage : EnglishDefault : NoForced : No

Скриншоты

Показать сообщения:    

Текущее время: 21-Сен 09:40

Часовой пояс: UTC - 1


Вы не можете начинать темы
Вы не можете отвечать на сообщения
Вы не можете редактировать свои сообщения
Вы не можете удалять свои сообщения
Вы не можете голосовать в опросах
Вы не можете прикреплять файлы к сообщениям
Вы не можете скачивать файлы

!ВНИМАНИЕ!
Сайт не предоставляет электронные версии произведений, а занимается лишь коллекционированием и каталогизацией ссылок, присылаемых и публикуемых на форуме нашими читателями. Если вы являетесь правообладателем какого-либо представленного материала и не желаете, чтобы ссылка на него находилась в нашем каталоге, свяжитесь с нами, и мы незамедлительно удалим ее. Файлы для обмена на трекере предоставлены пользователями сайта, и администрация не несет ответственности за их содержание. Просьба не заливать файлы, защищенные авторскими правами, а также файлы нелегального содержания!