Важное объявление!
У Нас Все раздачи мультитрекерные, при нуле пиров в релизах, можете смело вставать на закачку!
 
Автор Сообщение

HUNTER

Стаж:
4 года 9 месяцев
Сообщений:
65047

Репутация: 101

[+] [-]
Вне форума [Профиль] [ЛС]

Семья Джетсонов / Jetsons: The Movie
Страна: США
Жанр: Мультфильм, мюзикл, фантастика, комедия, семейный
Продолжительность: 01:22:09
Год выпуска: 1990
Перевод: Профессиональный (многоголосый закадровый)
Русские субтитры: нет
Режиссёр: Джозеф Барбера / Joseph Barbera, Уильям Ханна / William Hanna
Роли озвучивали: Джордж О’Хенлон, Мэл Бланк, Пенни Синглтон, Патрик Л. Зиммерман, Дон Мессик, Джин Вандер Пул, Ронни Шелл, Патти Дьютч, Дэна Хилл
Описание: Космические приключения Джорджа Джетсона, которого назначили вице-президентом компании Спейсли Спрокетс, и отправили со своей семьей работать на орбитальный горнорудный астероид…
Дополнительная информация: Большая благодарноть пользователю bora86bora за предоставленную русскую озвучку
Семпл: http://multi-up.com/959976
Качество: WEB-DL 1080p
Формат: MKV
Видео: AVC, 1920x1040, 23.976 fps, 4951 kbps
Аудио: AC3, 48 kHz, 1ch (mono), 192 kbps (русский (СТС))
Аудио 2: AC3, 48 kHz, 6ch, 384 kbps (английский)
Субтитры: отсутствуют

Подробные технические данные

C:\fakepath\Jetsons The Movie 1990 1080p WEB-DL.mkv General Unique ID : 214383663633079845720339821744610699428 (0xA148CAAF54BD3AB09A1C626A3CD968A4) Complete name : C:\fakepath\Jetsons The Movie 1990 1080p WEB-DL.mkv Format : Matroska Format version : Version 4 / Version 2 File size : 3.24 GiB Duration : 1h 22mn Overall bit rate : 5 639 Kbps Encoded date : UTC 2014-03-18 17:38:06 Writing application : mkvmerge v6.8.0 ('Theme for Great Cities') 64bit built on Mar 2 2014 21:34:26 Writing library : libebml v1.3.0 + libmatroska v1.4.1 Video #1 ID : 1 Format : AVC Format/Info : Advanced Video Codec Format profile : High@L4.0 Format settings, CABAC : Yes Format settings, ReFrames : 4 frames Codec ID : V_MPEG4/ISO/AVC Duration : 1h 22mn Bit rate : 4 951 Kbps Width : 1 920 pixels Height : 1 040 pixels Display aspect ratio : 1.85:1 Frame rate mode : Constant Frame rate : 23.976 fps Color space : YUV Chroma subsampling : 4:2:0 Bit depth : 8 bits Scan type : Progressive Bits/(Pixel*Frame) : 0.103 Stream size : 2.84 GiB (88%) Language : English Default : Yes Forced : No Color primaries : BT.709 Transfer characteristics : BT.709 Matrix coefficients : BT.709 Audio #2 ID : 2 Format : AC-3 Format/Info : Audio Coding 3 Mode extension : CM (complete main) Format settings, Endianness : Big Codec ID : A_AC3 Duration : 1h 22mn Bit rate mode : Constant Bit rate : 192 Kbps Channel(s) : 1 channel Channel positions : Front: C Sampling rate : 48.0 KHz Bit depth : 16 bits Compression mode : Lossy Stream size : 113 MiB (3%) Title : Russian Mono Language : Russian Default : Yes Forced : No Audio #3 ID : 3 Format : AC-3 Format/Info : Audio Coding 3 Mode extension : CM (complete main) Format settings, Endianness : Big Codec ID : A_AC3 Duration : 1h 22mn Bit rate mode : Constant Bit rate : 384 Kbps Channel(s) : 6 channels Channel positions : Front: L C R, Side: L R, LFE Sampling rate : 48.0 KHz Bit depth : 16 bits Compression mode : Lossy Stream size : 226 MiB (7%) Title : English 5.1 Language : English Default : No Forced : No

Скриншоты


_________________
Показать сообщения:    

Текущее время: Сегодня 10:32

Часовой пояс: GMT



Вы не можете начинать темы
Вы не можете отвечать на сообщения
Вы не можете редактировать свои сообщения
Вы не можете удалять свои сообщения
Вы не можете голосовать в опросах
Вы не можете прикреплять файлы к сообщениям
Вы не можете скачивать файлы