Важное объявление!
У Нас Все раздачи мультитрекерные, при нуле пиров в релизах, можете смело вставать на закачку!
 
Автор Сообщение

HUNTER

Стаж:
4 года 7 месяцев
Сообщений:
61554

Репутация: 101

[+] [-]
Вне форума [Профиль] [ЛС]

Семейные ценности / The Family Jewels
Страна: США
Студия: Jerry Lewis Productions, Paramount Pictures
Жанр: Комедия
Год выпуска: 1965
Продолжительность: 01:35:26
Перевод: Профессиональный (двухголосый закадровый)
Cубтитры: нет
Оригинальная аудиодорожка: нет
Режиссер: Джерри Льюис / Jerry Lewis
В ролях: Джерри Льюис, Себастьян Кабот, Нил Хэмилтон, Джей Адлер, Роберт Штраусс, Джесслин Факс, Рени Риано, Эллен Корби, Фрэнсис Вентрауб Лакс, Марджори Беннетт
Описание: Оставшаяся сиротой Донна Пейтон, маленькая наследница миллионного состояния, должна познакомиться с шестью своими дядьками и выбрать кого-то из них в качестве опекуна. Вот только эти шестеро оказываются один эксцентричнее другого, и Донна начинает подумывать, а не сделать ли ей опекуном своего друга-шофёра Уилларда.
Сэмпл: http://rusfolder.com/40429882, http://sendfile.su/967939, http://www.sendspace.com/file/a3lker
Тип релиза: HDTV 1080i
Контейнер: TS
Видео: 4586 Кбит/сек, MPEG4 Video (H264) 1920x1080 (16:9) 25fps
Аудио: MPEG Audio 48000Hz stereo Layer 2 192kbps

MediaInfo

Общее
Идентификатор : 1 (0x1)
Полное имя : D:\Семейные ценности (The Family Jewels) [1965] (RUS) [Paramount Channel HD].ts
Формат : MPEG-TS
Размер файла : 3,35 Гбайт
Продолжительность : 1 ч. 35 м.
Режим общего битрейта : Переменный
Общий поток : 5028 Кбит/сек
Видео
Идентификатор : 69 (0x45)
Идентификатор меню : 1 (0x1)
Формат : AVC
Формат/Информация : Advanced Video Codec
Профиль формата : High@L4.0
Параметр CABAC формата : Да
Параметр ReFrames формата : 4 кадра
Идентификатор кодека : 27
Продолжительность : 1 ч. 35 м.
Вид битрейта : Переменный
Битрейт : 4586 Кбит/сек
Максимальный битрейт : 5000 Кбит/сек
Ширина : 1920 пикселей
Высота : 1080 пикселей
Соотношение сторон : 16:9
Режим частоты кадров : Переменный
Цветовое пространство : YUV
Субдискретизация насыщенности : 4:2:0
Битовая глубина : 8 бит
Тип развёртки : MBAFF
Размер потока : 3,06 Гбайт (91%)
Аудио
Идентификатор : 68 (0x44)
Идентификатор меню : 1 (0x1)
Формат : MPEG Audio
Версия формата : Version 1
Профиль формата : Layer 2
Идентификатор кодека : 3
Продолжительность : 1 ч. 35 м.
Вид битрейта : Постоянный
Битрейт : 192 Кбит/сек
Каналы : 2 канала
Частота : 48,0 КГц
Метод сжатия : С потерями
Размер потока : 131 Мбайт (4%)
Язык : Russian

Скриншоты


_________________
Показать сообщения:    

Текущее время: Сегодня 11:24

Часовой пояс: GMT



Вы не можете начинать темы
Вы не можете отвечать на сообщения
Вы не можете редактировать свои сообщения
Вы не можете удалять свои сообщения
Вы не можете голосовать в опросах
Вы не можете прикреплять файлы к сообщениям
Вы не можете скачивать файлы
Наши партнеры: интернет магазин Ивановского трикотажа textilla.ru