Важное объявление!
У Нас Все раздачи мультитрекерные, при нуле пиров в релизах, можете смело вставать на закачку!
 
Автор Сообщение

HUNTER

Стаж:
4 года 6 месяцев
Сообщений:
60994

Репутация: 101

[+] [-]
Вне форума [Профиль] [ЛС]

Семейная свадьба / Our Family Wedding / Open Matte
Страна: США
Жанр: мелодрама, комедия
Год выпуска: 2010
Продолжительность: 01:35:40
Перевод: Профессиональный (многоголосый закадровый)
Cубтитры: нет
Оригинальная аудиодорожка: нет
Режиссер: Рик Фамуйива / Rick Famuyiwa
В ролях: Форест Уитакер, Америка Феррера, Карлос Менсиа, Реджина Кинг, Лэнс Гросс, Диана-Мария Рива, Люпе Онтиверос, Анджела Н. Джонсон, Чарльз К. Мерфи, Вивек Шах, Шаннин Соссамон, Тонита Кастро, Анна Мария Хорсфорд, Уоррен Сапп, Шондрелла Эйвери, Стерлинг Ардри, Скайлан Брукс, Кастуло Герра, Джозеф Менсиа, Мэтт Саутер, Пол Коста, Хоакин Пастор, Джеймс Лежер, Алехандро Патино, Жаклин Мацарелла, Джо Вассалло, Элла Джойс, Сай Ричардсон, Ноэль Гульеми, Чарльз Гришам, Кэролайн Аарон, Мими Майклс, Карли Аверс, Хейли Норман, Гордон Джеймс, Джина Родригез, Гэбриел Альварез, Деле, Брэд Поттс, Катрина Бэйкер, Майкл Кларк, Тэй Диггз, Леон Гантер, Либертад Грин, Синтия Пачеко, Морис Уэбстер, Трой Уильямс
Описание: Предсвадебная неделя молодой пары оказалась хлопотной, особенно если учесть, что их отцы пытаются в это время положить конец давней вражде.
Доп. информация: Запись с канала Первый HD. HDTV имеет иное наполнение кадра чем BD http://screenshotcomparison.com/comparison/143055
Сэмпл: http://multi-up.com/1068147
Тип релиза: HDTV 1080i
Контейнер: TS
Видео: AVC, 1920x1080 (16:9), 25.000 fps, 11.5 Mbps (0.222 bit/pixel)
Аудио: MP2, 48.0 KHz, 2 ch, 192 Kbps, CBR (Russian)

MediaInfo

Общее
Идентификатор : 3 (0x3)
Полное имя : K:\Семейная свадьба.ts
Формат : MPEG-TS
Размер файла : 8,22 Гбайт
Продолжительность : 1 ч. 35 м.
Режим общего битрейта : Переменный
Общий поток : 12,3 Мбит/сек
Видео
Идентификатор : 2141 (0x85D)
Идентификатор меню : 21004 (0x520C)
Формат : AVC
Формат/Информация : Advanced Video Codec
Профиль формата : Main@L4
Параметр CABAC формата : Да
Параметр ReFrames формата : 3 кадра
Идентификатор кодека : 27
Продолжительность : 1 ч. 35 м.
Битрейт : 11,5 Мбит/сек
Ширина : 1920 пикселей
Высота : 1080 пикселей
Соотношение сторон : 16:9
Частота кадров : 25,000 кадров/сек
Стандарт вещания : Component
Цветовое пространство : YUV
Субдискретизация насыщенности : 4:2:0
Битовая глубина : 8 бит
Тип развёртки : Чересстрочная
Порядок развёртки : Верхнее поле первое
Бит/(Пиксели*Кадры) : 0.222
Размер потока : 7,69 Гбайт (93%)
Цветовой диапазон : Limited
Основные цвета : BT.709
Характеристики трансфера : BT.709
Коэффициенты матрицы : BT.709
Аудио
Идентификатор : 2142 (0x85E)
Идентификатор меню : 21004 (0x520C)
Формат : MPEG Audio
Версия формата : Version 1
Профиль формата : Layer 2
Идентификатор кодека : 4
Продолжительность : 1 ч. 35 м.
Вид битрейта : Постоянный
Битрейт : 192 Кбит/сек
Каналы : 2 канала
Частота : 48,0 КГц
Метод сжатия : С потерями
Задержка видео : -16 мс.
Размер потока : 131 Мбайт (2%)
Язык : Russian

Скриншоты


_________________
Показать сообщения:    

Текущее время: Сегодня 19:09

Часовой пояс: GMT



Вы не можете начинать темы
Вы не можете отвечать на сообщения
Вы не можете редактировать свои сообщения
Вы не можете удалять свои сообщения
Вы не можете голосовать в опросах
Вы не можете прикреплять файлы к сообщениям
Вы не можете скачивать файлы
Наши партнеры: интернет магазин Ивановского трикотажа textilla.ru