Семейка не от мира сего / Uchouten Kazoku / The Eccentric Family (Ёсихара Масаюки) [TV] [9 из 13] [без хардсаба] [RUS(ext), JAP+SUB] [2013 г., комедия, фэнтези, BDRip] [720p] :: Ивановский Торрент трекер
Важное объявление!
У Нас Все раздачи мультитрекерные, при нуле пиров в релизах, можете смело вставать на закачку!
Статистика раздачи
Размер:     |    Зарегистрирован:     |    Скачан:     |   
Нет
 
     
 
 
Автор Сообщение

HUNTER

Стаж:
4 года 11 месяцев
Сообщений:
66054

Репутация: 101

[+] [-]
Вне форума [Профиль] [ЛС]

-
Год выпуска: 2013
Страна: Япония
Жанр: комедия, фэнтези
Продолжительность: 13 эп. по 25 мин.
Выпуск: c 07.07.2013 по 29.09.2013-Перевод:
  • русские субтитры от Timecraft & NekoSubs (полные/вспомогательные)
    переводчики: AleX_MytH, Angie, редакторы: Bel-chan, Reaper, Zlatoglazka
-Режиссер: Ёсихара Масаюки
Студия: P.A. Works-Описание:
Что изменится, если в японском небе будут парить тэнгу, носатые духи ветра, а по земле прыгать лукавые оборотни-тануки? Да ровным счетом ничего! Обитатели этого мира считают свою жизнь абсолютно нормальной, причем все три расы мирно сосуществуют как среди лесов и полей, так и в каменных джунглях мегаполисов. При этом каждого ждут свои опасности – тэнгу может ослабнуть духом и рухнуть с небес, человек – прожить бесполезную жизнь, а тануки – попасть в зубы хищников. С такой судьбой можно и нужно бороться, и даже если злой рок одолеет, исход нужно принять достойно, тогда можно даже смерть превратить в победу!
Именно так считают члены семьи Симогамо, славной среди тануки Киото. Сойтиро, глава семьи, погиб при загадочных обстоятельствах, и теперь место лидера общины пытается занять его старший сын Яйтиро. Второй сын по имени Ядзиро еще не пришел в себя от скорби, а младший сын Ясиро слишком молод. Лишь у Ясабуро, третьего сына, хватает воли, таланта и азарта ввязаться в смертельную игру, где главный приз – шанс докопаться до истины и найти истинных виновников смерти отца. На этом пути его ждут таинственный «Пятничный клуб», живая богиня Бэнтэн и опасность за каждым поворотом – но зато парню точно не будет скучно! Не зря каждый эпизод саги о семье Симогамо начинается словами песни: «мир не может быть неинтересным – интересным его делаешь ты сам!»
© Hollow, World Art-Информационные ссылки: AniDB || World Art || MAL-Качество: BDRip
Энкод: Winter - RG Pantheon
Тип видео: без хардсаба
Формат: mkv
Видео: x264 (Hi10p), 1280x720, ~2500 Kbps, 23.976 fps
Аудио JAP: Vorbis, 48000Hz, ~256 Kbps, 2ch
Аудио RUS 1-2: AC3, 48000Hz, ~192 Kbps, 2ch-

Список озвучек в раздаче

  • одноголосая (жен.) от Kasumi (ARRU) [1]
  • двухголосая (жен./муж.) от TrinaD & JAM (AniDub)

Список эпизодов

01. Goddess of the Noryoyuka
02. Mom and Raijin, God of Thunder
03. Yakushibo`s Inner Parlor
04. Battle of the Daimonji Leisure Cruisers
05. The Friday Fellows
06. Taking in Fall Colors
07. Bathhouse Rules
08. The Day of Dad`s Departure
09. Kaisei, Daughter of Ebisugawa

Скриншоты


Подробные тех. данные

Общее
Уникальный идентификатор : 243625914603155415903327939363961784318 (0xB748A4F8775DB507BEC70BDDFAEB47FE)
Полное имя : Z:\Anime\720p\Uchouten Kazoku [BD] [720p]\[Winter] Uchouten Kazoku 01 [BDrip 1280x720 x264 Vorbis].mkv
Формат : Matroska
Версия формата : Version 2
Размер файла : 495 Мбайт
Продолжительность : 23 м.
Режим общего битрейта : Переменный
Общий поток : 2886 Кбит/сек
Дата кодирования : UTC 2013-10-04 17:34:57
Программа кодирования : mkvmerge v2.9.8 ('C'est le bon') built on Aug 13 2009 12:49:06
Библиотека кодирования : libebml v0.7.7 + libmatroska v0.8.1
Видео
Идентификатор : 1
Формат : AVC
Формат/Информация : Advanced Video Codec
Профиль формата : High 10@L4.1
Параметр CABAC формата : Да
Параметр ReFrames формата : 9 кадров
Идентификатор кодека : V_MPEG4/ISO/AVC
Продолжительность : 23 м.
Битрейт : 2572 Кбит/сек
Ширина : 1280 пикселей
Высота : 720 пикселей
Соотношение сторон : 16:9
Режим частоты кадров : Постоянный
Частота кадров : 23,976 кадра/сек
Цветовое пространство : YUV
Субдискретизация насыщенности : 4:2:0
Битовая глубина : 10 бит
Тип развёртки : Прогрессивная
Бит/(Пиксели*Кадры) : 0.116
Размер потока : 441 Мбайт (89%)
Библиотека кодирования : x264 core 132 r2309 3b1f1f7
Настройки программы : cabac=1 / ref=9 / deblock=1:-2:-2 / analyse=0x3:0x133 / me=umh / subme=9 / psy=1 / psy_rd=0.90:0.00 / mixed_ref=1 / me_range=24 / chroma_me=1 / trellis=2 / 8x8dct=1 / cqm=0 / deadzone=21,11 / fast_pskip=1 / chroma_qp_offset=-2 / threads=6 / lookahead_threads=1 / sliced_threads=0 / nr=0 / decimate=0 / interlaced=0 / bluray_compat=0 / constrained_intra=0 / bframes=8 / b_pyramid=2 / b_adapt=2 / b_bias=0 / direct=1 / weightb=1 / open_gop=0 / weightp=2 / keyint=250 / keyint_min=23 / scenecut=40 / intra_refresh=0 / rc=crf / mbtree=0 / crf=15.1 / qcomp=0.70 / qpmin=9 / qpmax=40 / qpstep=4 / ip_ratio=1.40 / pb_ratio=1.30 / aq=1:0.90
Default : Нет
Forced : Нет
Аудио
Идентификатор : 2
Формат : Vorbis
Параметр Floor формата : 1
Идентификатор кодека : A_VORBIS
Продолжительность : 23 м.
Вид битрейта : Переменный
Битрейт : 256 Кбит/сек
Каналы : 2 канала
Частота : 48,0 КГц
Метод сжатия : С потерями
Размер потока : 43,9 Мбайт (9%)
Библиотека кодирования : libVorbis (Schaufenugget) (20101101 (Schaufenugget))
Язык : Japanese
Default : Да
Forced : Нет
- -

Информация о релизе

  • Выбор видео, перевода, озвучки, а также типа сборки материала осуществляется релизером и не подлежит обсуждению. Если вы считаете, что раздаваемый материал противоречит правилам раздела "Аниме" rutracker.org, сообщите об этом одному из модераторов раздела.
  • В случае появления нового материала или же лучшего по качеству материала релизер оставляет за собой право обновить раздачу. В этом случае вам необходимо ознакомиться с изменениями (добавлениями) и перекачать торрент.
  • Данный релиз предназначен для просмотра на ПК. Воспроизведение на иных проигрывателях не гарантируется. Для просмотра рекомендуется Media Player Classic с установленным пакетом кодеков K-Lite.
  • Данный релиз содержит 10-битное видео (Hi10p). Для корректного воспроизведения обязательно используйте кодеки, поддерживающие 10-битное видео.
    Обсудить проблемы с воспроизведением и получить дополнительную информацию можно здесь.

  • Данный релиз предназначен для просмотра с внешними субтитрами и внешними звуковыми дорожками.
    • Для просмотра с внешней звуковой дорожкой нужно:
      перекинуть файлы .mka из папки "RUS Sound [<автор(ы) озвучки>]" в одну папку с видео и переключить звуковую дорожку в плеере при просмотре. Как это сделать в разных плеерах подробно описано здесь.

    • Для просмотра с субтитрами нужно:
      перекинуть файлы .ass из папки "RUS Subtitles [<автор(ы) перевода>]" в одну папку с видео - плеер подгрузит их автоматически при открытии видео.
  • Если у вас возникли проблемы с просмотром, не связанные с описанным выше, сообщите о них автору раздачи посредством сообщения в теме или ЛС Aglenn.

_________________
Показать сообщения:    

Текущее время: Сегодня 02:05

Часовой пояс: GMT



Вы не можете начинать темы
Вы не можете отвечать на сообщения
Вы не можете редактировать свои сообщения
Вы не можете удалять свои сообщения
Вы не можете голосовать в опросах
Вы не можете прикреплять файлы к сообщениям
Вы не можете скачивать файлы