Важное объявление!
У Нас Все раздачи мультитрекерные, при нуле пиров в релизах, можете смело вставать на закачку!
 
Автор Сообщение

HUNTER

Стаж:
4 года 9 месяцев
Сообщений:
65013

Репутация: 101

[+] [-]
Вне форума [Профиль] [ЛС]


Семейка монстров | The Boxtrolls
«Родственников не выбирают»
-
Страна: США
Жанр: фэнтези, комедия, приключения
Продолжительность: 01:36:09
Год выпуска: 2014
Перевод: Профессиональный (дублированный)
Русские субтитры: есть
Режиссёр: Грэхэм Эннэйбл / Graham Annable, Энтони Стакки / Anthony Stacchi
Роли озвучивали: Бен Кингсли, Джаред Харрис, Ник Фрост, Ричард Айоади, Трэйси Морган, Ди Брэдли Бэйкер, Стивен Блум, Ника Футтерман-ОписаниеМультфильм о коробочных троллях, живущих в глубинах канализации города Сырбурга. Жители города верят в них и считают, что те выходят ночью на поверхность, чтобы похищать детей и сыр, которым так любят лакомиться горожане.
Ему не повезло родиться в роскошном замке. Вместе с семейкой забавных монстров юноша поселился прямо под мостовой. Изысканные костюмы ему заменила обычная коробка. Зато каждую ночь он мог разгуливать по темным улицам в поисках новых приключений. Но однажды он встретил очаровательную девчушку из высшего общества — и мир вокруг изменился навсегда.
-
The Boxtrolls — американский кукольный мультфильм студии Laika («Паранорман, или Как приручить зомби», «Коралина в стране кошмаров») по сказке «Здесь живут монстры» Алана Сноу
Сэмпл

IMDb: 7.00 (8678)
Релиз:

Качество: BDRip 720p BOXTROLLS_3D_BLUEBIRD
Формат: MKV
Видео: AVC at 5 510 Kbps 1280 x 720 (1.778) 23.976 fps
Аудио: AC-3 640 Kbps 6 channels, 48.0 KHz DUB Rus
Аудио 2: AC-3 448 Kbps 6 channels, 48.0 KHz DUB Ukr
Аудио 3: AC-3 640 Kbps 6 channels, 48.0 KHz Eng
Субтитры: русские (полные, форсированные), английские (полные, SDH, SDH-COLOR), украинские (полные, форсированные)

FAQ по просмотру MKV/h.264 | Хеш файла [info_hash]

FAQ по просмотру MKV/h.264/AAC
Хеш файла [info_hash] (Хеш-сумма)
Или, проще говоря, хеш файла является уникальным идентификатором файла (раздачи)
Как скачать раздачу, зная только её хеш?
Как скачать раздачу, зная только её хеш?
Открытая база раздач RuTracker.ORG

MI | Log

Log
x264 [info]: frame I:1062 Avg QP:15.27 size:151784
x264 [info]: frame P:33627 Avg QP:16.69 size: 57362
x264 [info]: frame B:103645 Avg QP:18.91 size: 19173
x264 [info]: consecutive B-frames: 3.3% 2.9% 10.0% 30.7% 21.1% 25.3% 3.0% 2.7% 0.6% 0.3% 0.2%
x264 [info]: mb I I16..4: 5.0% 77.9% 17.1%
x264 [info]: mb P I16..4: 1.1% 20.3% 2.3% P16..4: 25.0% 28.5% 13.4% 2.8% 0.3% skip: 6.1%
x264 [info]: mb B I16..4: 0.2% 2.9% 0.3% B16..8: 28.6% 21.0% 4.8% direct: 6.3% skip:35.9% L0:41.4% L1:42.6% BI:16.0%
x264 [info]: 8x8 transform intra:84.6% inter:54.2%
x264 [info]: direct mvs spatial:100.0% temporal:0.0%
x264 [info]: coded y,uvDC,uvAC intra: 91.0% 94.3% 82.6% inter: 25.2% 29.6% 11.1%
x264 [info]: i16 v,h,dc,p: 17% 7% 7% 69%
x264 [info]: i8 v,h,dc,ddl,ddr,vr,hd,vl,hu: 10% 9% 11% 9% 12% 12% 12% 12% 14%
x264 [info]: i4 v,h,dc,ddl,ddr,vr,hd,vl,hu: 10% 8% 7% 9% 15% 14% 13% 11% 13%
x264 [info]: i8c dc,h,v,p: 51% 17% 16% 16%
x264 [info]: Weighted P-Frames: Y:4.1% UV:2.8%
x264 [info]: ref P L0: 47.7% 11.9% 18.1% 5.6% 5.3% 3.4% 3.5% 1.9% 2.2% 0.3% 0.0%
x264 [info]: ref B L0: 76.1% 11.2% 4.9% 2.8% 1.9% 1.7% 0.9% 0.5%
x264 [info]: ref B L1: 94.2% 5.8%
x264 [info]: kb/s:5653.46
x264 [total]: encoded 138334 frames, 6.96 fps, 5653.46 kb/s, duration 5:31:01.36
Format                                   : MatroskaFormat version                           : Version 4 / Version 2File size                                : 4.96 GiBDuration                                 : 1h 36mnOverall bit rate                         : 7 385 KbpsEncoded date                             : UTC 2015-04-05 12:50:17Writing application                      : mkvmerge v6.7.0 ('Back to the Ground') 32bit built on Jan  8 2014 15:03:17Writing library                          : libebml v1.3.0 + libmatroska v1.4.1
VideoID : 1Format : AVCFormat/Info : Advanced Video CodecFormat profile : High@L4.1Format settings, CABAC : YesFormat settings, ReFrames : 9 framesCodec ID : V_MPEG4/ISO/AVCDuration : 1h 36mnBit rate : 5 510 KbpsWidth : 1 280 pixelsHeight : 720 pixelsDisplay aspect ratio : 16:9Frame rate mode : ConstantFrame rate : 23.976 fpsColor space : YUVChroma subsampling : 4:2:0Bit depth : 8 bitsScan type : ProgressiveBits/(Pixel*Frame) : 0.249Stream size : 3.70 GiB (75%)Title : The Boxtrolls [rutracker.org] 720pWriting library : x264 core 146 r2538kMod 121396cEncoding settings : cabac=1 / ref=9 / deblock=1:-3:-2 / analyse=0x3:0x133 / me=umh / subme=11 / psy=1 / fade_compensate=0.00 / psy_rd=1.00:0.05 / mixed_ref=1 / me_range=32 / chroma_me=1 / trellis=2 / 8x8dct=1 / cqm=0 / deadzone=21,11 / fast_pskip=0 / chroma_qp_offset=-3 / threads=12 / lookahead_threads=3 / sliced_threads=0 / nr=0 / decimate=1 / interlaced=0 / bluray_compat=0 / constrained_intra=0 / fgo=0 / bframes=10 / b_pyramid=2 / b_adapt=2 / b_bias=0 / direct=3 / weightb=1 / open_gop=0 / weightp=2 / keyint=250 / keyint_min=23 / scenecut=40 / intra_refresh=0 / rc_lookahead=80 / rc=crf / mbtree=0 / crf=17.1000 / qcomp=0.60 / qpmin=0 / qpmax=69 / qpstep=4 / vbv_maxrate=50000 / vbv_bufsize=62500 / crf_max=0.0 / nal_hrd=none / filler=0 / ip_ratio=1.40 / pb_ratio=1.30 / aq=3:0.90Language : EnglishDefault : YesForced : No
Audio #1ID : 2Format : AC-3Format/Info : Audio Coding 3Mode extension : CM (complete main)Format settings, Endianness : BigCodec ID : A_AC3Duration : 1h 36mnBit rate mode : ConstantBit rate : 640 KbpsChannel(s) : 6 channelsChannel positions : Front: L C R, Side: L R, LFESampling rate : 48.0 KHzBit depth : 16 bitsCompression mode : LossyStream size : 440 MiB (9%)Title : DUB Blu-ray CEELanguage : RussianDefault : YesForced : No
Audio #2ID : 3Format : AC-3Format/Info : Audio Coding 3Mode extension : CM (complete main)Format settings, Endianness : BigCodec ID : A_AC3Duration : 1h 36mnBit rate mode : ConstantBit rate : 448 KbpsChannel(s) : 6 channelsChannel positions : Front: L C R, Side: L R, LFESampling rate : 48.0 KHzBit depth : 16 bitsCompression mode : LossyStream size : 308 MiB (6%)Title : DUB Blu-ray CEELanguage : UkrainianDefault : NoForced : No
Audio #3ID : 4Format : AC-3Format/Info : Audio Coding 3Mode extension : CM (complete main)Format settings, Endianness : BigCodec ID : A_AC3Duration : 1h 36mnBit rate mode : ConstantBit rate : 640 KbpsChannel(s) : 6 channelsChannel positions : Front: L C R, Side: L R, LFESampling rate : 48.0 KHzBit depth : 16 bitsCompression mode : LossyStream size : 440 MiB (9%)Title : OriginalLanguage : EnglishDefault : NoForced : No
Text #1ID : 5Format : UTF-8Codec ID : S_TEXT/UTF8Codec ID/Info : UTF-8 Plain TextTitle : ForcedLanguage : RussianDefault : YesForced : No
Text #2ID : 6Format : UTF-8Codec ID : S_TEXT/UTF8Codec ID/Info : UTF-8 Plain TextTitle : FullLanguage : RussianDefault : NoForced : No
Text #3ID : 7Format : UTF-8Codec ID : S_TEXT/UTF8Codec ID/Info : UTF-8 Plain TextTitle : ForcedLanguage : UkrainianDefault : NoForced : No
Text #4ID : 8Format : UTF-8Codec ID : S_TEXT/UTF8Codec ID/Info : UTF-8 Plain TextTitle : FullLanguage : UkrainianDefault : NoForced : No
Text #5ID : 9Format : UTF-8Codec ID : S_TEXT/UTF8Codec ID/Info : UTF-8 Plain TextTitle : FullLanguage : EnglishDefault : NoForced : No
Text #6ID : 10Format : UTF-8Codec ID : S_TEXT/UTF8Codec ID/Info : UTF-8 Plain TextTitle : SDHLanguage : EnglishDefault : NoForced : No
Text #7ID : 11Format : UTF-8Codec ID : S_TEXT/UTF8Codec ID/Info : UTF-8 Plain TextTitle : SDH - ColoredLanguage : EnglishDefault : NoForced : No
Menu00:00:00.000 : en:Chapter 100:05:52.143 : en:Chapter 200:11:53.295 : en:Chapter 300:15:21.337 : en:Chapter 400:20:22.804 : en:Chapter 500:27:08.501 : en:Chapter 600:32:25.944 : en:Chapter 700:36:26.517 : en:Chapter 800:41:45.920 : en:Chapter 900:45:45.284 : en:Chapter 1000:51:57.280 : en:Chapter 1100:56:00.106 : en:Chapter 1201:02:03.886 : en:Chapter 1301:07:26.208 : en:Chapter 1401:11:27.866 : en:Chapter 1501:16:27.874 : en:Chapter 1601:22:05.670 : en:Chapter 1701:25:30.375 : en:Chapter 1801:27:33.248 : en:Chapter 1901:30:00.686 : en:Chapter 20

Скриншоты





_________________
Показать сообщения:    

Текущее время: Сегодня 03:10

Часовой пояс: GMT



Вы не можете начинать темы
Вы не можете отвечать на сообщения
Вы не можете редактировать свои сообщения
Вы не можете удалять свои сообщения
Вы не можете голосовать в опросах
Вы не можете прикреплять файлы к сообщениям
Вы не можете скачивать файлы