Важное объявление!
У Нас Все раздачи мультитрекерные, при нуле пиров в релизах, можете смело вставать на закачку!
 
Автор Сообщение

HUNTER

Стаж:
4 года 11 месяцев
Сообщений:
66027

Репутация: 101

[+] [-]
Вне форума [Профиль] [ЛС]

Семейка монстров / The Boxtrolls«Родственников не выбирают»-
Страна: США
Жанр: фэнтези, комедия, приключения
Продолжительность: 01:36:09
Год выпуска: 2014
Перевод: Профессиональный (дублированный)
Русские субтитры: нет
Режиссёр: Грэхэм Эннэйбл / Graham Annable, Энтони Стакки / Anthony Stacchi
Роли озвучивали: Бен Кингсли, Джаред Харрис, Ник Фрост, Ричард Айоади, Трэйси Морган, Ди Брэдли Бэйкер, Стивен Блум, Ника Футтерман-ОписаниеМультфильм о коробочных троллях, живущих в глубинах канализации города Сырбурга. Жители города верят в них и считают, что те выходят ночью на поверхность, чтобы похищать детей и сыр, которым так любят лакомиться горожане.
Ему не повезло родиться в роскошном замке. Вместе с семейкой забавных монстров юноша поселился прямо под мостовой. Изысканные костюмы ему заменила обычная коробка. Зато каждую ночь он мог разгуливать по темным улицам в поисках новых приключений. Но однажды он встретил очаровательную девчушку из высшего общества — и мир вокруг изменился навсегда.
-
The Boxtrolls — американский кукольный мультфильм студии Laika («Паранорман, или Как приручить зомби», «Коралина в стране кошмаров») по сказке «Здесь живут монстры» Алана Сноу
Семпл

IMDb: 7.00 (8678)
Качество: BDRip-AVC BOXTROLLS_3D_BLUEBIRD
Формат: MKV
Видео: AVC 2706 Kbps 1024 x 576 (1.778) 23.976 fps
Аудио: AC-3 384 Kbps 6 channels, 48.0 KHz DUB
Аудио 2: AC-3 384 Kbps 6 channels, 48.0 KHz Eng
Субтитры: Eng SRT

FAQ по просмотру MKV/h.264 | Хеш файла [info_hash]

FAQ по просмотру MKV/h.264/AAC
Хеш файла [info_hash] (Хеш-сумма)
Или, проще говоря, хеш файла является уникальным идентификатором файла (раздачи)
Как скачать раздачу, зная только её хеш?
Как скачать раздачу, зная только её хеш?
Открытая база раздач RuTracker.ORG

MI | Log

Log
x264 [info]: frame I:1052 Avg QP:16.67 size: 91890
x264 [info]: frame P:33022 Avg QP:18.40 size: 29512
x264 [info]: frame B:104260 Avg QP:20.97 size: 8916
x264 [info]: consecutive B-frames: 3.0% 2.7% 9.1% 32.0% 20.1% 24.8% 4.9% 1.7% 0.7% 0.5% 0.2% 0.1% 0.2%
x264 [info]: mb I I16..4: 4.0% 74.9% 21.1%
x264 [info]: mb P I16..4: 0.9% 14.1% 2.5% P16..4: 27.6% 29.1% 12.8% 2.7% 0.4% skip: 9.8%
x264 [info]: mb B I16..4: 0.2% 1.6% 0.3% B16..8: 28.6% 18.0% 4.0% direct: 4.4% skip:43.0% L0:41.0% L1:45.1% BI:13.9%
x264 [info]: 8x8 transform intra:79.0% inter:57.0%
x264 [info]: coded y,uvDC,uvAC intra: 89.6% 91.4% 75.9% inter: 19.7% 20.4% 5.9%
x264 [info]: i16 v,h,dc,p: 16% 7% 4% 73%
x264 [info]: i8 v,h,dc,ddl,ddr,vr,hd,vl,hu: 10% 8% 7% 9% 13% 13% 13% 13% 15%
x264 [info]: i4 v,h,dc,ddl,ddr,vr,hd,vl,hu: 10% 7% 5% 9% 15% 15% 14% 12% 13%
x264 [info]: i8c dc,h,v,p: 44% 20% 18% 18%
x264 [info]: Weighted P-Frames: Y:4.6% UV:3.1%
x264 [info]: ref P L0: 48.4% 12.4% 16.5% 5.3% 4.5% 3.1% 2.9% 1.5% 1.5% 1.2% 1.3% 1.2% 0.2% 0.0%
x264 [info]: ref B L0: 76.2% 10.2% 4.9% 2.6% 1.7% 1.4% 1.1% 0.7% 0.6% 0.4% 0.2%
x264 [info]: ref B L1: 93.7% 6.3%
x264 [info]: kb/s:2774.22
x264 [total]: encoded 138334 frames, 9.22 fps, 2774.22 kb/s, duration 4:10:05.06
Format                                   : MatroskaFormat version                           : Version 4 / Version 2File size                                : 2.38 GiBDuration                                 : 1h 36mnOverall bit rate                         : 3 544 KbpsEncoded date                             : UTC 2014-12-25 20:22:49Writing application                      : mkvmerge v6.7.0 ('Back to the Ground') 32bit built on Jan  8 2014 15:03:17Writing library                          : libebml v1.3.0 + libmatroska v1.4.1
VideoID : 1Format : AVCFormat/Info : Advanced Video CodecFormat profile : High@L4.1Format settings, CABAC : YesFormat settings, ReFrames : 12 framesCodec ID : V_MPEG4/ISO/AVCDuration : 1h 36mnBit rate : 2 706 KbpsWidth : 1 024 pixelsHeight : 576 pixelsDisplay aspect ratio : 16:9Frame rate mode : ConstantFrame rate : 23.976 fpsColor space : YUVChroma subsampling : 4:2:0Bit depth : 8 bitsScan type : ProgressiveBits/(Pixel*Frame) : 0.191Stream size : 1.82 GiB (76%)Title : The Boxtrolls [rutracker.org]Writing library : x264 core 144 r2525kMod 40bb568Encoding settings : cabac=1 / ref=12 / deblock=1:-2:-1 / analyse=0x3:0x133 / me=umh / subme=11 / psy=1 / fade_compensate=0.00 / psy_rd=1.00:0.05 / mixed_ref=1 / me_range=32 / chroma_me=1 / trellis=2 / 8x8dct=1 / cqm=0 / deadzone=21,11 / fast_pskip=0 / chroma_qp_offset=-3 / threads=12 / lookahead_threads=3 / sliced_threads=0 / nr=0 / decimate=1 / interlaced=0 / bluray_compat=0 / constrained_intra=0 / fgo=0 / bframes=12 / b_pyramid=2 / b_adapt=2 / b_bias=0 / direct=1 / weightb=1 / open_gop=0 / weightp=2 / keyint=250 / keyint_min=23 / scenecut=40 / intra_refresh=0 / rc_lookahead=60 / rc=crf / mbtree=0 / crf=18.0000 / qcomp=0.60 / qpmin=0 / qpmax=69 / qpstep=4 / vbv_maxrate=50000 / vbv_bufsize=62500 / crf_max=0.0 / nal_hrd=none / filler=0 / ip_ratio=1.40 / pb_ratio=1.30 / aq=3:0.90Language : EnglishDefault : YesForced : No
Audio #1ID : 2Format : AC-3Format/Info : Audio Coding 3Mode extension : CM (complete main)Format settings, Endianness : BigCodec ID : A_AC3Duration : 1h 36mnBit rate mode : ConstantBit rate : 384 KbpsChannel(s) : 6 channelsChannel positions : Front: L C R, Side: L R, LFESampling rate : 48.0 KHzBit depth : 16 bitsCompression mode : LossyStream size : 264 MiB (11%)Title : DUBLanguage : RussianDefault : YesForced : No
Audio #2ID : 3Format : AC-3Format/Info : Audio Coding 3Mode extension : CM (complete main)Format settings, Endianness : BigCodec ID : A_AC3Duration : 1h 36mnBit rate mode : ConstantBit rate : 384 KbpsChannel(s) : 6 channelsChannel positions : Front: L C R, Side: L R, LFESampling rate : 48.0 KHzBit depth : 16 bitsCompression mode : LossyStream size : 264 MiB (11%)Title : OriginalLanguage : EnglishDefault : NoForced : No
Text #1ID : 4Format : UTF-8Codec ID : S_TEXT/UTF8Codec ID/Info : UTF-8 Plain TextTitle : FullLanguage : EnglishDefault : NoForced : No
Text #2ID : 5Format : UTF-8Codec ID : S_TEXT/UTF8Codec ID/Info : UTF-8 Plain TextTitle : SDHLanguage : EnglishDefault : NoForced : No
Menu00:00:00.000 : en:00:00:00.00000:05:52.143 : en:00:05:52.14300:11:53.296 : en:00:11:53.29600:15:21.337 : en:00:15:21.33700:20:22.805 : en:00:20:22.80500:27:08.502 : en:00:27:08.50200:32:25.944 : en:00:32:25.94400:36:26.518 : en:00:36:26.51800:41:45.920 : en:00:41:45.92000:45:45.284 : en:00:45:45.28400:51:57.281 : en:00:51:57.28100:56:00.107 : en:00:56:00.10701:02:03.887 : en:01:02:03.88701:07:26.209 : en:01:07:26.20901:11:27.867 : en:01:11:27.86701:16:27.875 : en:01:16:27.87501:22:05.671 : en:01:22:05.67101:25:30.375 : en:01:25:30.37501:27:33.248 : en:01:27:33.24801:30:00.687 : en:01:30:00.687

Скриншоты | Rip vs Source

Source

_________________
Показать сообщения:    

Текущее время: Сегодня 22:03

Часовой пояс: GMT



Вы не можете начинать темы
Вы не можете отвечать на сообщения
Вы не можете редактировать свои сообщения
Вы не можете удалять свои сообщения
Вы не можете голосовать в опросах
Вы не можете прикреплять файлы к сообщениям
Вы не можете скачивать файлы