Ивановский Торрент трекер
Яндекс.Погода
 

[Цитировать]
HUNTER

Семейка монстров / The Boxtrolls
Страна: США
Жанр: мультфильм, фэнтези, комедия, приключения, семейный
Продолжительность: 01:36:10
Год выпуска: 2014
Перевод: Профессиональный (дублированный)
Русские субтитры: есть
Режиссёр: Грэхэм Эннэйбл, Энтони Стакки / Graham Annable, Anthony Stacchi
Роли озвучивали: Бен Кингсли, Джаред Харрис, Ник Фрост, Ричард Айоади, Трэйси Морган, Ди Брэдли Бейкер, Стивен Блум, Ника Футтерман, Пэт Фрэли, Фред Татаскьор
Описание: Ему не повезло родиться в роскошном замке. Вместе с семейкой забавных монстров юноша поселился прямо под мостовой. Изысканные костюмы ему заменила обычная коробка. Зато каждую ночь он мог разгуливать по темным улицам в поисках новых приключений. Но однажды он встретил очаровательную девчушку из высшего общества — и мир вокруг изменился навсегда.

Семпл: http://multi-up.com/1043648/
Качество: BDRip 1080p
Формат: MKV
Видео: MPEG4 Video (H264) 1920x1080 23.976fps 11.0 Mbps
Аудио: Russian AC-3 48.0 KHz 6 ch 640 Kbps DUB Blu-ray CEE
Аудио 2: English DTS 48.0 KHz 6 ch 1 509 Kbps Original
Аудио 3: English AC-3 48.0 KHz 2 ch 192 Kbps Commentary
Субтитры: Rus [Forced, Full], Eng [Full, SDH, SDH-COLOR]

Подробные технические данные

GeneralUnique ID : 246939745789894959551005166614917149244 (0xB9C6DD7661BE3FDF8934973E0E6FF23C)Complete name : C:\Users\Вика\Desktop\The.Boxtrolls.2014.BDRip.1080p.mkvFormat : MatroskaFormat version : Version 4 / Version 2File size : 8.96 GiBDuration : 1h 36mnOverall bit rate : 13.3 MbpsEncoded date : UTC 2015-04-13 07:43:42Writing application : mkvmerge v7.4.0 ('Circles') 64bit built on Dec 12 2014 12:19:56Writing library : libebml v1.3.0 + libmatroska v1.4.1_STATISTICS_WRITING_APP : mkvmerge v7.4.0 ('Circles') 64bit built on Dec 12 2014 12:19:56_STATISTICS_WRITING_DATE_UTC : 2015-04-13 07:43:42_STATISTICS_TAGS : BPS DURATION NUMBER_OF_FRAMES NUMBER_OF_BYTESDURATION : 01:31:13.810000000NUMBER_OF_FRAMES : 1726NUMBER_OF_BYTES : 62637
VideoID : 1Format : AVCFormat/Info : Advanced Video CodecFormat profile : High@L4.1Format settings, CABAC : YesFormat settings, ReFrames : 4 framesCodec ID : V_MPEG4/ISO/AVCDuration : 1h 36mnBit rate : 11.0 MbpsWidth : 1 920 pixelsHeight : 1 080 pixelsDisplay aspect ratio : 16:9Frame rate mode : ConstantFrame rate : 23.976 fpsColor space : YUVChroma subsampling : 4:2:0Bit depth : 8 bitsScan type : ProgressiveBits/(Pixel*Frame) : 0.221Stream size : 7.21 GiB (80%)Title : MPEG-4 x264@High Profile L4.1, 24/1.001 fps @ 11000 kbpsWriting library : x264 core 142 r2491 24e4fedEncoding settings : cabac=1 / ref=4 / deblock=1:-3:-3 / analyse=0x3:0x133 / me=umh / subme=11 / psy=1 / psy_rd=0.60:0.00 / mixed_ref=1 / me_range=32 / chroma_me=1 / trellis=2 / 8x8dct=1 / cqm=0 / deadzone=21,11 / fast_pskip=0 / chroma_qp_offset=-2 / threads=12 / lookahead_threads=1 / sliced_threads=0 / nr=0 / decimate=0 / interlaced=0 / bluray_compat=0 / constrained_intra=0 / bframes=6 / b_pyramid=2 / b_adapt=2 / b_bias=0 / direct=3 / weightb=1 / open_gop=0 / weightp=2 / keyint=240 / keyint_min=23 / scenecut=40 / intra_refresh=0 / rc_lookahead=60 / rc=2pass / mbtree=1 / bitrate=11000 / ratetol=1.0 / qcomp=0.60 / qpmin=0 / qpmax=69 / qpstep=4 / cplxblur=20.0 / qblur=0.5 / vbv_maxrate=45000 / vbv_bufsize=45000 / nal_hrd=none / filler=0 / ip_ratio=1.40 / aq=1:0.60Language : EnglishDefault : YesForced : No_STATISTICS_WRITING_APP : mkvmerge v7.4.0 ('Circles') 64bit built on Dec 12 2014 12:19:56_STATISTICS_WRITING_DATE_UTC : 2015-04-13 07:43:42_STATISTICS_TAGS : BPS DURATION NUMBER_OF_FRAMES NUMBER_OF_BYTESDURATION : 01:36:09.681000000NUMBER_OF_FRAMES : 138334NUMBER_OF_BYTES : 7932710141
Audio #1ID : 2Format : AC-3Format/Info : Audio Coding 3Mode extension : CM (complete main)Format settings, Endianness : BigCodec ID : A_AC3Duration : 1h 36mnBit rate mode : ConstantBit rate : 640 KbpsChannel(s) : 6 channelsChannel positions : Front: L C R, Side: L R, LFESampling rate : 48.0 KHzBit depth : 16 bitsCompression mode : LossyStream size : 440 MiB (5%)Title : DUB Blu-ray CEELanguage : RussianDefault : YesForced : No
Audio #2ID : 3Format : DTSFormat/Info : Digital Theater SystemsMode : 16Format settings, Endianness : BigCodec ID : A_DTSDuration : 1h 36mnBit rate mode : ConstantBit rate : 1 509 KbpsChannel(s) : 6 channelsChannel positions : Front: L C R, Side: L R, LFESampling rate : 48.0 KHzBit depth : 24 bitsCompression mode : LossyStream size : 1.01 GiB (11%)Title : English DTS Master Audio 5.1 @ 1 509 KbpsLanguage : EnglishDefault : NoForced : No
Audio #3ID : 4Format : AC-3Format/Info : Audio Coding 3Format profile : Dolby DigitalMode extension : CM (complete main)Format settings, Endianness : BigCodec ID : A_AC3Duration : 1h 36mnBit rate mode : ConstantBit rate : 192 KbpsChannel(s) : 2 channelsChannel positions : Front: L RSampling rate : 48.0 KHzBit depth : 16 bitsCompression mode : LossyStream size : 132 MiB (1%)Title : English Dolby Digital Audio 2.0 @ 192 kbps CommentaryLanguage : EnglishDefault : NoForced : No
Text #1ID : 5Format : UTF-8Codec ID : S_TEXT/UTF8Codec ID/Info : UTF-8 Plain TextTitle : ForcedLanguage : RussianDefault : YesForced : No
Text #2ID : 6Format : UTF-8Codec ID : S_TEXT/UTF8Codec ID/Info : UTF-8 Plain TextTitle : FullLanguage : RussianDefault : NoForced : No
Text #3ID : 7Format : UTF-8Codec ID : S_TEXT/UTF8Codec ID/Info : UTF-8 Plain TextTitle : FullLanguage : EnglishDefault : NoForced : No
Text #4ID : 8Format : UTF-8Codec ID : S_TEXT/UTF8Codec ID/Info : UTF-8 Plain TextTitle : SDHLanguage : EnglishDefault : NoForced : No
Text #5ID : 9Format : UTF-8Codec ID : S_TEXT/UTF8Codec ID/Info : UTF-8 Plain TextTitle : SDH - ColoredLanguage : EnglishDefault : NoForced : No
Menu00:00:00.000 : en:00:00:00.00000:05:52.143 : en:00:05:52.14300:11:53.296 : en:00:11:53.29600:15:21.337 : en:00:15:21.33700:20:22.805 : en:00:20:22.80500:27:08.502 : en:00:27:08.50200:32:25.944 : en:00:32:25.94400:36:26.518 : en:00:36:26.51800:41:45.920 : en:00:41:45.92000:45:45.284 : en:00:45:45.28400:51:57.281 : en:00:51:57.28100:56:00.107 : en:00:56:00.10701:02:03.887 : en:01:02:03.88701:07:26.209 : en:01:07:26.20901:11:27.867 : en:01:11:27.86701:16:27.875 : en:01:16:27.87501:22:05.671 : en:01:22:05.67101:25:30.375 : en:01:25:30.37501:27:33.248 : en:01:27:33.24801:30:00.687 : en:01:30:00.687

Скриншоты

Показать сообщения:    

Текущее время: 20-Сен 01:18

Часовой пояс: UTC - 1


Вы не можете начинать темы
Вы не можете отвечать на сообщения
Вы не можете редактировать свои сообщения
Вы не можете удалять свои сообщения
Вы не можете голосовать в опросах
Вы не можете прикреплять файлы к сообщениям
Вы не можете скачивать файлы

!ВНИМАНИЕ!
Сайт не предоставляет электронные версии произведений, а занимается лишь коллекционированием и каталогизацией ссылок, присылаемых и публикуемых на форуме нашими читателями. Если вы являетесь правообладателем какого-либо представленного материала и не желаете, чтобы ссылка на него находилась в нашем каталоге, свяжитесь с нами, и мы незамедлительно удалим ее. Файлы для обмена на трекере предоставлены пользователями сайта, и администрация не несет ответственности за их содержание. Просьба не заливать файлы, защищенные авторскими правами, а также файлы нелегального содержания!