Важное объявление!
У Нас Все раздачи мультитрекерные, при нуле пиров в релизах, можете смело вставать на закачку!
Статистика раздачи
Размер:     |    Зарегистрирован:     |    Скачан:     |   
Нет
 
     
 
 
Автор Сообщение

HUNTER

Стаж:
5 лет
Сообщений:
68415

Репутация: 101

[+] [-]
Вне форума [Профиль] [ЛС]

Секрет Н.И.М.Х. / Секрет Крыс / The Secret of NIMH
Год выпуска: 1982
Страна: США
Жанр: мультфильм, фантастика, фэнтези, драма, семейный
Продолжительность: 01:22:45
Перевод: Профессиональный (дублированный) - Дисней
Перевод 2: Профессиональный (двухголосый закадровый) - Союз Видео
Русские субтитры: нет
Оригинальная аудиодорожка: английский
Режиссёр: Дон Блут / Don Bluth
Роли озвучивали: Дерек Джекоби (Nicodemus), Элизабет Хартман (Mrs. Brisby), Артур Мэлет (Mr. Ages), Дом ДеЛуис (Jeremy), Гермиона Бадделей (Auntie Shrew), Шэннен Доэрти (Teresa), Уил Уитон (Martin), Джоди Хикс (Cynthia), Йен Фрид (Timothy), Джон Кэрредин (Great Owl)-Мировая премьера: 2 июля 1982-Описание: Сражаясь за спасение своего домика от разрушения фермером Фицджиббом, миссис Бризби прибегает к помощи своих друзей, среди которых ворон, мудрая сова и несколько невероятно сообразительных крыс.-sgu-ltg - исходник видео.
xfiles - собственная запись дубляжа с телеканала Дисней через спутник.
Fikaloid - собственная оцифровка перевода со своей лицензионной видеокассеты от видео-компании Союз Видео.
JUSTKANT - синхронизация переводов.-Данные переводы на трекере появляются впервые.-

MPAA: G - Нет возрастных ограничений-Качество: BDRip
Формат: AVI -> //SAMPLE//
Видео: XviD, 704x384 (1,85:1), 23.976 fps, 1933 kbps avg
Аудио:
1 - 48 khz, AC3 Dolby Digital, 2/0 (L,R) ch, ~192 kbps [Дисней] SATRip
2 - 48 khz, AC3 Dolby Digital, 2/0 (L,R) ch, ~192 kbps [Союз Совенчер] VHSRip
3 - 48 khz, AC3 Dolby Digital, 2/0 (L,R) ch, ~192 kbps [Английский]

Подробные технические данные

GeneralComplete name : E:\Торрент Файлы\Будущие Релизы на Трекере\1.35 - 1.46 и более гб\Секрет Н.И.М.Х. (Дисней + Союз Видео + Оригинал).aviFormat : AVIFormat/Info : Audio Video InterleaveFile size : 1.46 GiBDuration : 1h 22mnOverall bit rate : 2 528 KbpsWriting application : VirtualDubMod 1.5.10.3 | www.virtualdub-fr.org || (build 2550/release)Writing library : VirtualDubMod build 2550/release
VideoID : 0Format : MPEG-4 VisualFormat profile : Advanced Simple@L5Format settings, BVOP : 2Format settings, QPel : NoFormat settings, GMC : No warppointsFormat settings, Matrix : CustomCodec ID : XVIDCodec ID/Hint : XviDDuration : 1h 22mnBit rate : 1 933 KbpsWidth : 704 pixelsHeight : 384 pixelsDisplay aspect ratio : 1.85:1Frame rate : 23.976 fpsColor space : YUVChroma subsampling : 4:2:0Bit depth : 8 bitsScan type : ProgressiveCompression mode : LossyBits/(Pixel*Frame) : 0.298Stream size : 1.12 GiB (76%)Writing library : XviD 63
Audio #1ID : 1Format : AC-3Format/Info : Audio Coding 3Mode extension : CM (complete main)Format settings, Endianness : BigCodec ID : 2000Duration : 1h 22mnBit rate mode : ConstantBit rate : 192 KbpsChannel(s) : 2 channelsChannel positions : Front: L RSampling rate : 48.0 KHzCompression mode : LossyStream size : 114 MiB (8%)Alignment : Split accross interleavesInterleave, duration : 42 ms (1.00 video frame)Interleave, preload duratio : 500 ms
Audio #2ID : 2Format : AC-3Format/Info : Audio Coding 3Mode extension : CM (complete main)Format settings, Endianness : BigCodec ID : 2000Duration : 1h 22mnBit rate mode : ConstantBit rate : 192 KbpsChannel(s) : 2 channelsChannel positions : Front: L RSampling rate : 48.0 KHzCompression mode : LossyStream size : 114 MiB (8%)Alignment : Split accross interleavesInterleave, duration : 42 ms (1.00 video frame)Interleave, preload duratio : 500 ms
Audio #3ID : 3Format : AC-3Format/Info : Audio Coding 3Mode extension : CM (complete main)Format settings, Endianness : BigCodec ID : 2000Duration : 1h 22mnBit rate mode : ConstantBit rate : 192 KbpsChannel(s) : 2 channelsChannel positions : Front: L RSampling rate : 48.0 KHzCompression mode : LossyStream size : 114 MiB (8%)Alignment : Split accross interleavesInterleave, duration : 42 ms (1.00 video frame)Interleave, preload duratio : 500 ms

Скриншоты


_________________
Показать сообщения:    

Текущее время: Сегодня 10:54

Часовой пояс: GMT



Вы не можете начинать темы
Вы не можете отвечать на сообщения
Вы не можете редактировать свои сообщения
Вы не можете удалять свои сообщения
Вы не можете голосовать в опросах
Вы не можете прикреплять файлы к сообщениям
Вы не можете скачивать файлы