Ивановский Торрент трекер
Яндекс.Погода
 

[Цитировать]
HUNTER

Секрет моего успеха / The Secret of My Succe$s
«There's no such thing as an overnight success. Brantley Foster took two weeks»
Год выпуска: 1987
Страна: США
Производство: Rastar Pictures, Universal Pictures
Жанр: Комедия
Продолжительность: 01:50:24
Перевод 1: Профессиональный (дублированный) | EUR
Перевод 2: Профессиональный (многоголосый закадровый)
Перевод 3: Авторский (одноголосый закадровый) | Королёв
Перевод 4: Авторский (одноголосый закадровый) | Живов
Оригинальная аудиодорожка: Английский
Субтитры: Русские, английские
Режиссёр: Херберт Росс
В ролях: Майкл Дж. Фокс, Хелен Слейтер, Ричард Джордан, Маргарет Уиттон, Джон Пэнкоу, Кристофер Мёрни, Джерри Бэммен, Фред Гуинн, Кэрол Энн Сьюзи, Элизабет Франц и др.
Описание: Брантли Фостер — выпускник колледжа из Канзаса — переезжает в Нью-Йорк, чтобы начать карьеру финансиста. Однако компанию, в которой он планировал работать, покупает другая корпорация, и нашему герою отказывают. После нескольких неудачных попыток найти другую работу Брантли устраивается на должность разносчика писем в компанию своего дяди Говарда Прескота.


SbR
Сэмпл
Качество: BDRip 720p
Формат: MKV
Видео: MPEG-4 AVC: ~10500 kbps / 1280x694 / 23.976 fps / 1.85:1
Аудио: Russian: DTS / 2.0 / 48 kHz / 768 kbps / 24-bit | Дубляж
Аудио: Russian: AC3 / 2.0 / 48 kHz / 192 kbps | MVO
Аудио: Russian: FLAC / 2.0 / 48 kHz / 613 kbps | Королёв
Аудио: Russian: FLAC / 2.0 / 48 kHz / 603 kbps | Живов
Аудио: English: FLAC / 2.0 / 48 kHz / 559 kbps | Оригинальный

MediaInfoXP

GeneralUnique ID : 251428596228260547893638974878622340044 (0xBD2762E04E206C75AA071D190062D3CC)Complete name : F:\The.Secret.of.My.Success.1987.720p.BluRay.4xRus.Eng.x264-SbR.mkvFormat : MatroskaFormat version : Version 4 / Version 2File size : 10.2 GiBDuration : 1h 50mnOverall bit rate mode : VariableOverall bit rate : 13.2 MbpsEncoded date : UTC 2015-11-13 06:47:14Writing application : mkvmerge v8.3.0 ('Over the Horizon') 64bitWriting library : libebml v1.3.1 + libmatroska v1.4.2Attachements : cover.jpgDURATION : 01:49:42.326000000NUMBER_OF_FRAMES : 1791NUMBER_OF_BYTES : 62009_STATISTICS_WRITING_APP : mkvmerge v8.3.0 ('Over the Horizon') 64bit_STATISTICS_WRITING_DATE_UTC : 2015-11-13 06:47:14_STATISTICS_TAGS : BPS DURATION NUMBER_OF_FRAMES NUMBER_OF_BYTES
VideoID : 1Format : AVCFormat/Info : Advanced Video CodecFormat profile : High@L4.1Format settings, CABAC : YesFormat settings, ReFrames : 9 framesCodec ID : V_MPEG4/ISO/AVCDuration : 1h 50mnNominal bit rate : 10.5 MbpsWidth : 1 280 pixelsHeight : 694 pixelsDisplay aspect ratio : 1.85:1Frame rate mode : ConstantFrame rate : 23.976 fpsColor space : YUVChroma subsampling : 4:2:0Bit depth : 8 bitsScan type : ProgressiveBits/(Pixel*Frame) : 0.493Writing library : x264 core 146 r0+2586 e393126 t_mod_Custom [8-bit@all X86_64]Encoding settings : cabac=1 / ref=9 / deblock=1:-3:-3 / analyse=0x3:0x133 / me=umh / subme=11 / psy=1 / fade_compensate=0.00 / psy_rd=1.00:0.05 / mixed_ref=1 / me_range=24 / chroma_me=1 / trellis=2 / 8x8dct=1 / cqm=0 / deadzone=21,11 / fast_pskip=0 / chroma_qp_offset=-3 / threads=6 / lookahead_threads=1 / sliced_threads=0 / nr=0 / decimate=1 / interlaced=0 / bluray_compat=0 / constrained_intra=0 / fgo=0 / bframes=11 / b_pyramid=2 / b_adapt=2 / b_bias=0 / direct=3 / weightb=1 / open_gop=0 / weightp=2 / keyint=250 / keyint_min=23 / scenecut=40 / intra_refresh=0 / rc=2pass / mbtree=0 / bitrate=10500 / ratetol=1.0 / qcomp=0.70 / qpmin=0:0:0 / qpmax=69:69:69 / qpstep=4 / cplxblur=20.0 / qblur=0.5 / ip_ratio=1.30 / pb_ratio=1.20 / aq=1:0.70 / aq-sensitivity=10.00 / aq-factor=1.00:1.00:1.00 / aq2=1:0.65 / aq2-sensitivity=15.00 / aq2-factor=1.00:1.00:1.00 / aq3=1:[0.55:0.55]:[0.55:0.55]:[0.55:0.55]:[0.55:0.55] / aq3-sensitivity=10.00 / aq3-factor=[1.00:1.00]:[1.00:1.00]:[1.00:1.00] / aq3-boundary=192:64:24Language : EnglishDefault : YesForced : NoColor range : LimitedMatrix coefficients : BT.709DURATION : 01:50:24.660000000NUMBER_OF_FRAMES : 158833NUMBER_OF_BYTES : 8688741844_STATISTICS_WRITING_APP : mkvmerge v8.3.0 ('Over the Horizon') 64bit_STATISTICS_WRITING_DATE_UTC : 2015-11-13 06:47:14_STATISTICS_TAGS : BPS DURATION NUMBER_OF_FRAMES NUMBER_OF_BYTES
Audio #1ID : 2Format : DTSFormat/Info : Digital Theater SystemsMode : 16Format settings, Endianness : BigCodec ID : A_DTSDuration : 1h 50mnBit rate mode : ConstantBit rate : 768 KbpsChannel(s) : 2 channelsChannel positions : Front: L RSampling rate : 48.0 KHzBit depth : 24 bitsCompression mode : LossyStream size : 607 MiB (6%)Title : Дубляж, BD CEELanguage : RussianDefault : YesForced : No
Audio #2ID : 3Format : AC-3Format/Info : Audio Coding 3Mode extension : CM (complete main)Format settings, Endianness : BigCodec ID : A_AC3Duration : 1h 50mnBit rate mode : ConstantBit rate : 192 KbpsChannel(s) : 2 channelsChannel positions : Front: L RSampling rate : 48.0 KHzCompression mode : LossyStream size : 152 MiB (1%)Title : Многоголосый закадровыйLanguage : RussianDefault : NoForced : No
Audio #3ID : 4Format : FLACFormat/Info : Free Lossless Audio CodecCodec ID : A_FLACDuration : 1h 50mnBit rate mode : VariableChannel(s) : 2 channelsSampling rate : 48.0 KHzBit depth : 16 bitsTitle : Одноголосый закадровый, Королев 613 KbpsWriting library : libFLAC 1.2.1 (UTC 2007-09-17)Language : RussianDefault : NoForced : No
Audio #4ID : 5Format : FLACFormat/Info : Free Lossless Audio CodecCodec ID : A_FLACDuration : 1h 50mnBit rate mode : VariableChannel(s) : 2 channelsSampling rate : 48.0 KHzBit depth : 16 bitsTitle : Одноголосый закадровый, Живов 603 KbpsWriting library : libFLAC 1.2.1 (UTC 2007-09-17)Language : RussianDefault : NoForced : No
Audio #5ID : 6Format : FLACFormat/Info : Free Lossless Audio CodecCodec ID : A_FLACDuration : 1h 50mnBit rate mode : VariableChannel(s) : 2 channelsSampling rate : 48.0 KHzBit depth : 16 bitsTitle : 559 KbpsWriting library : libFLAC 1.2.1 (UTC 2007-09-17)Language : EnglishDefault : NoForced : No
Text #1ID : 7Format : UTF-8Codec ID : S_TEXT/UTF8Codec ID/Info : UTF-8 Plain TextLanguage : RussianDefault : NoForced : No
Text #2ID : 8Format : UTF-8Codec ID : S_TEXT/UTF8Codec ID/Info : UTF-8 Plain TextLanguage : EnglishDefault : NoForced : No
Menu00:00:00.000 : en:00:00:00.00000:04:53.668 : en:00:04:53.66800:10:25.708 : en:00:10:25.70800:17:42.061 : en:00:17:42.06100:23:10.055 : en:00:23:10.05500:32:38.123 : en:00:32:38.12300:34:52.048 : en:00:34:52.04800:39:36.165 : en:00:39:36.16500:52:43.869 : en:00:52:43.86900:57:15.891 : en:00:57:15.89101:02:08.475 : en:01:02:08.47501:11:04.510 : en:01:11:04.51001:14:29.006 : en:01:14:29.00601:21:01.231 : en:01:21:01.23101:23:32.925 : en:01:23:32.92501:29:26.903 : en:01:29:26.90301:37:16.748 : en:01:37:16.74801:39:29.630 : en:01:39:29.63001:44:38.314 : en:01:44:38.31401:46:29.466 : en:01:46:29.466

Скриншот с названием фильма

Скриншоты

Показать сообщения:    

Текущее время: 17-Окт 10:34

Часовой пояс: UTC - 1


Вы не можете начинать темы
Вы не можете отвечать на сообщения
Вы не можете редактировать свои сообщения
Вы не можете удалять свои сообщения
Вы не можете голосовать в опросах
Вы не можете прикреплять файлы к сообщениям
Вы не можете скачивать файлы

!ВНИМАНИЕ!
Сайт не предоставляет электронные версии произведений, а занимается лишь коллекционированием и каталогизацией ссылок, присылаемых и публикуемых на форуме нашими читателями. Если вы являетесь правообладателем какого-либо представленного материала и не желаете, чтобы ссылка на него находилась в нашем каталоге, свяжитесь с нами, и мы незамедлительно удалим ее. Файлы для обмена на трекере предоставлены пользователями сайта, и администрация не несет ответственности за их содержание. Просьба не заливать файлы, защищенные авторскими правами, а также файлы нелегального содержания!