Важное объявление!
У Нас Все раздачи мультитрекерные, при нуле пиров в релизах, можете смело вставать на закачку!
 
Автор Сообщение

HUNTER

Стаж:
4 года 8 месяцев
Сообщений:
62044

Репутация: 101

[+] [-]
Вне форума [Профиль] [ЛС]

Секреты эффективного заработка в Sape-Год выпуска: 2013
Страна: Россия
Сайт производителя: http://www.sistema-dohoda.ru/
Тематика: работа
Тип материала: видео
Автор: http://www.sistema-dohoda.ru/
Язык: русский
Субтитры: нет--Описание: Знаете ли вы, что просто разместив код ведущей в Рунете биржи ссылок Sape на страницы своих сайтов, вы можете получать стабильный доход, причем доход этот будет автоматическим (пассивным)?
Если у вас возникла мысль, что можно быстренько состряпать на коленке сайт, установить на него код Sape, и уже через пару недель начать, как говорится, рубить капусту в промышленных масштабах, то вынужден вас разочаровать: курс не об этом.
Акцент в курсе сделан на обучении созданию долгосрочного, высокоэффективного и стабильного источника дохода в виде сайта (или сайтов), монетизированного через Sape и способного кормить вас годами. И, понятное дело, на раз-два это не делается, для этого потребуется как минимум несколько месяцев.
Однако именно долгосрочный подход к заработку на сайтах особенно перспективен. И давайте рассмотрим, почему именно заработок на сайтах имеет сегодня принципиальные преимущества по сравнению со многими другими видами заработка в Интернете и реале:
Видеокурс содержит 23 видеоурока, логически объединенных в 4 блока.-Качество: WebDL
Формат: MPEG-4
Видео кодек: AVC
Аудио кодек: AAC
Видео: 1024x768 pixel, 7.000 fps, 492 kbps
Аудио: 44.1 kHz, 2.0 (stereo), 93.6 kbps-

Содержание

I. Знакомство с заработком на продаже ссылок в Sape
1. Сколько можно заработать?
2. Преимущества заработка на продаже ссылок
3. Суть заработка на продаже ссылок
4. Что нужно знать перед монетизацией сайта
5. Что такое биржи ссылок. Знакомство с Sape
II. Подготовка сайта к регистрации в Sape
6. Пузомерки: тИЦ и PR
7. Что нужно знать о дизайне сайта
8. Контент сайта
9. Оптимальная структура сайта
III. Регистрация в Sape
10. Регистрируемся в Sape
11. Установка кода на страницы сайта (общий случай)
12. Установка кода на сайт под управлением CMS Joomla
13. Тонкости первичной настройки продаж
14. Что нужно сделать сразу после проверки сайта модератором
IV. Максимизация дохода в Sape
15. Как за двое суток поднять доход в Sape более чем на 50%
16. Тонкости ценовой политики при продаже ссылок
17. Как существенно увеличить доход за счет страниц с ненулевым PR
18. Как правильно продавать ссылки, чтобы не угодить под АГС или в бан
19. Оптимальные настройки продаж со страниц разного уровня вложенности
20. Увеличение дохода в Sape за счет контекстных ссылок
21. Невидимый новичкам нюанс, вредящий сайту и съедающий 30-50% их прибыли в Sape
22. Как увеличивать прибыль в Sape даже тогда, когда лимиты на продажу израсходованы
23. Как автоматизированно выявлять те страницы сайта, которые вредят вашему дохо

MediaInfo

Общее
Полное имя : D:\программы для windows\всё для заработка\videokurs-sape\lessons\les1-dohod\lesson1.mp4
Формат : MPEG-4
Профиль формата : Base Media / Version 2
Идентификатор кодека : mp42
Размер файла : 35,3 Мбайт
Продолжительность : 8 м. 23 с.
Режим общего битрейта : Переменный
Общий поток : 588 Кбит/сек
Исполнитель : Zeleniy Manimayker
Дата кодирования : UTC 2013-03-14 13:04:49
Дата пометки : UTC 2013-03-14 13:04:49
Видео
Идентификатор : 1
Формат : AVC
Формат/Информация : Advanced Video Codec
Профиль формата : [url=mailto:Baseline@L3.1]Baseline@L3.1[/url]
Параметр CABAC формата : Нет
Параметр ReFrames формата : 3 кадра
Параметр GOP формата : M=1, N=35
Идентификатор кодека : avc1
Идентификатор кодека/Информация : Advanced Video Coding
Продолжительность : 8 м. 23 с.
Вид битрейта : Переменный
Битрейт : 492 Кбит/сек
Ширина : 1024 пикселя
Высота : 768 пикселей
Соотношение сторон : 4:3
Режим частоты кадров : Постоянный
Частота кадров : 7,000 кадров/сек
Цветовое пространство : YUV
Субдискретизация насыщенности : 4:2:0
Битовая глубина : 8 бит
Тип развёртки : Прогрессивная
Бит/(Пиксели*Кадры) : 0.089
Размер потока : 29,6 Мбайт (84%)
Язык : English
Дата кодирования : UTC 2013-03-14 13:04:49
Дата пометки : UTC 2013-03-14 13:04:49
Аудио
Идентификатор : 2
Формат : AAC
Формат/Информация : Advanced Audio Codec
Профиль формата : LC
Идентификатор кодека : 40
Продолжительность : 8 м. 23 с.
Продолжительность оригинала : 8 м. 23 с.
Вид битрейта : Переменный
Битрейт : 93,6 Кбит/сек
Максимальный битрейт : 246 Кбит/сек
Каналы : 2 канала
Расположение каналов : Front: L R
Частота : 44,1 КГц
Метод сжатия : С потерями
Размер потока : 5,62 Мбайт (16%)
Размер потока оригинала : 5,62 Мбайт (16%)
Язык : English
Дата кодирования : UTC 2013-03-14 13:04:49
Дата пометки : UTC 2013-03-14 13:04:49
mdhd_Duration : 503710

Скриншоты


_________________
Показать сообщения:    

Текущее время: Сегодня 01:43

Часовой пояс: GMT



Вы не можете начинать темы
Вы не можете отвечать на сообщения
Вы не можете редактировать свои сообщения
Вы не можете удалять свои сообщения
Вы не можете голосовать в опросах
Вы не можете прикреплять файлы к сообщениям
Вы не можете скачивать файлы
Наши партнеры: интернет магазин Ивановского трикотажа textilla.ru