Важное объявление!
У Нас Все раздачи мультитрекерные, при нуле пиров в релизах, можете смело вставать на закачку!
Статистика раздачи
Размер:     |    Зарегистрирован:     |    Скачан:     |   
Нет
 
     
 
 
Автор Сообщение

HUNTER

Стаж:
5 лет 1 месяц
Сообщений:
68449

Репутация: 101

[+] [-]
Вне форума [Профиль] [ЛС]

Секреты знакомств ВКонтакте-

Год выпуска: 2010
Страна: Россия
Сайт производителя: отсутствует
Тематика: Соблазнение
Тип материала: Видеоурок-Продолжительность: 01:30:00
Автор: Александр Гулый-Язык: Русский
Субтитры: отсутствуют-Описание: Что даст вам этот курс?
множество красивых девушек ВКонтакте, с которыми ты будешь вести активную переписку..
восторженные отзывы,поклонниц на твоей стене.
легкость общения с девушками, которым другие писать просто боятся, настолько они прекрасны и неприступны.
кайф от прочтения сообщений девушек, когда-то отвергших тебя и теперь кусающих локти в досаде за свою глупость.
романтические свидания с разными, но одинаково положительно настроенными к тебе девушками офлайн.
долгие отношения, а быть может даже любовь, если ты предпочтешь этот путь.
секс, много секса, столько секса, сколько ты захочешь, если ты не будешь тормозить и если у тебя все в порядке с потенцией.
-Качество: DVDRip
Формат: AVI
Видео кодек: XviD
Аудио кодек: MP3
Видео: 720x576 (1.25:1), 25 fps, XviD build 46 ~1498 kbps avg, 0.14 bit/pixel
Аудио: 48 kHz, MPEG Layer 3, 2 ch, ~192.00 kbps avg-

Содержание

Введение
Урок #1. «Настройка»
Урок #2. «Профиль»
Урок #3. «Переписка»
Урок #4. «Вызвон»

MediaInfo

Код: copyText_writeLink('this.parentNode.parentNode.nextSibling.nextSibling'); Общее
Полное имя : E:\Обучение\SEKRETI_ZNAKOMSV_VKONTAKTE\Введение.avi
Формат : AVI
Формат/Информация : Audio Video Interleave
Размер файла : 72,6 Мбайт
Продолжительность : 5 м. 57 с.
Общий поток : 1704 Кбит/сек
Программа кодирования : Lavf51.12.1
Видео
Идентификатор : 0
Формат : xvid
Идентификатор кодека : xvid
Продолжительность : 5 м. 57 с.
Битрейт : 1499 Кбит/сек
Ширина : 720 пикселей
Высота : 576 пикселей
Соотношение сторон : 5:4
Частота кадров : 25,000 кадров/сек
Стандарт вещания : PAL
Бит/(Пиксели*Кадры) : 0.145
Размер потока : 63,9 Мбайт (88%)
Аудио
Идентификатор : 1
Формат : MPEG Audio
Версия формата : Version 1
Профиль формата : Layer 3
Режим : Joint stereo
Расширение режима : MS Stereo
Идентификатор кодека : 55
Идентификатор кодека/Подсказка : MP3
Продолжительность : 5 м. 57 с.
Вид битрейта : Постоянный
Битрейт : 192 Кбит/сек
Каналы : 2 канала
Частота : 48,0 КГц
Метод сжатия : С потерями
Размер потока : 8,18 Мбайт (11%)
Выравнивание : Соединение по промежуткам
Продолжительность промежутка : 24 мс. (0,60 видеокадр)
Время предзагрузки промежутка : 24 мс.
- -

_________________
Показать сообщения:    

Текущее время: Сегодня 19:28

Часовой пояс: GMT



Вы не можете начинать темы
Вы не можете отвечать на сообщения
Вы не можете редактировать свои сообщения
Вы не можете удалять свои сообщения
Вы не можете голосовать в опросах
Вы не можете прикреплять файлы к сообщениям
Вы не можете скачивать файлы