Секретная служба Санта-Клауса / Arthur Christmas (Сара Смит / Sarah Smith) [2011, мультфильм, драма, комедия, семейный, DVDScreener] Dub :: Ивановский Торрент трекер
Важное объявление!
У Нас Все раздачи мультитрекерные, при нуле пиров в релизах, можете смело вставать на закачку!
Статистика раздачи
Размер:     |    Зарегистрирован:     |    Скачан:     |   
Нет
 
     
 
 
Автор Сообщение

ForZe

Стаж:
4 года 11 месяцев
Сообщений:
182

Репутация: 30

[+] [-]
Вне форума [Профиль] [ЛС]

Секретная служба Санта-Клауса / Arthur Christmas
Страна: США, Великобритания
Жанр: мультфильм, драма, комедия, семейный
Продолжительность: 01:37:32-Год выпуска: 2011
Перевод: Профессиональный (дублированный) [звук с TS]
Русские субтитры: нет-Режиссёр: Сара Смит / Sarah Smith
Роли озвучивали: Джеймс МакЭвой, Хью Лори, Билл Найи, Джим Броудбент, Имелда Стонтон, Эшли Дженсен, Марк Вуттон, Лора Линни, Ева Лонгория, Рамона Маркес-Описание: Фильм приоткрывает завесу тайны над тем, каким образом Санта-Клаусу удается развезти подарки всем детям на Земле всего за одну ночь.-Доп. информация:
Мировая премьера: 11 ноября 2011
Премьера в России: 8 декабря 2011-Семпл: http://multi-up.com/630377
Качество: DVDScreener
Формат: AVI
Видео: Xvid, 720x400 (1.80:1), 23.976fps, 1 861 Kbps
Аудио: MPEG Audio Layer 3, 48000Hz, 2 ch, 128kbps
Субтитры: отсутствуют

Подробные технические данные

Format : AVIFormat/Info : Audio Video InterleaveFile size : 1.36 GiBDuration : 1h 37mnOverall bit rate : 1 999 KbpsWriting application : VirtualDubMod 1.5.10.2 (build 2540/release)Writing library : VirtualDubMod build 2540/release
VideoID : 0Format : MPEG-4 VisualFormat profile : Advanced Simple@L5Format settings, BVOP : YesFormat settings, QPel : NoFormat settings, GMC : No warppointsFormat settings, Matrix : Default (H.263)Muxing mode : Packed bitstreamCodec ID : XVIDCodec ID/Hint : XviDDuration : 1h 37mnBit rate : 1 861 KbpsWidth : 720 pixelsHeight : 400 pixelsDisplay aspect ratio : 16:9Frame rate : 23.976 fpsColor space : YUVChroma subsampling : 4:2:0Bit depth : 8 bitsScan type : ProgressiveCompression mode : LossyBits/(Pixel*Frame) : 0.270Stream size : 1.27 GiB (93%)Writing library : XviD 64
AudioID : 1Format : MPEG AudioFormat version : Version 1Format profile : Layer 3Codec ID : 55Codec ID/Hint : MP3Duration : 1h 37mnBit rate mode : ConstantBit rate : 128 KbpsChannel(s) : 2 channelsSampling rate : 48.0 KHzCompression mode : LossyStream size : 89.3 MiB (6%)Alignment : Aligned on interleavesInterleave, duration : 42 ms (1.00 video frame)Interleave, preload duration : 504 ms

Скриншоты





_________________
Отдам инвайты на Dota 2! Если кому нужны пишите в лс
Показать сообщения:    

Текущее время: Сегодня 03:51

Часовой пояс: GMT



Вы не можете начинать темы
Вы не можете отвечать на сообщения
Вы не можете редактировать свои сообщения
Вы не можете удалять свои сообщения
Вы не можете голосовать в опросах
Вы не можете прикреплять файлы к сообщениям
Вы не можете скачивать файлы