Секретная служба Санта-Клауса / Arthur Christmas (Сара Смит, Бэрри Кук / Sarah Smith, Barry Cook) [2011, комедия, семейный, BDRip-AVC] Dub (BD CEE) + Dub (Ukr) + Rus, Eng, Fre, Spa Sub + Original Eng :: Ивановский Торрент трекер
Важное объявление!
У Нас Все раздачи мультитрекерные, при нуле пиров в релизах, можете смело вставать на закачку!
 
Автор Сообщение

HUNTER

Стаж:
4 года 11 месяцев
Сообщений:
66045

Репутация: 101

[+] [-]
Вне форума [Профиль] [ЛС]


Секретная служба Санта-КлаусаArthur Christmas
«А вам слабо развезти 2 миллиарда подарков за одну ночь?»
-
Страна: Великобритания, США
Жанр: комедия, семейный
Продолжительность: 01:37:33
Год выпуска: 2011
Перевод: Профессиональный (дублированный) BD 3D CEE
Русские субтитры: есть
Режиссёр: Сара Смит, Бэрри Кук / Sarah Smith, Barry Cook
Роли озвучивали: Джеймс МакЭвой, Хью Лори, Билл Найи, Джим Броудбент, Имелда Стонтон, Эшли Дженсен, Марк Вуттон, Лора Линни, Ева Лонгория, Рамона Маркес, Майкл Пэлин...
Роли дублировали: Антон Колесников, Игорь Балалаев, Александр Леньков, Александр Новиков, Людмила Гнилова, Ольга Шорохова, Илья Хвостиков, Наталья Грачева, Ольга Голованова, Анна Денисова-ОписаниеФильм приоткрывает завесу тайны над тем, каким образом Санта-Клаусу удается развезти подарки всем детям на Земле всего за одну ночь...-
Секретная служба Санта-Клауса (Arthur Christmas) — компьютерный анимационный мультфильм производства Aardman Animations и Sony Pictures Animation
Сэмпл

IMDb: 7.10 (31 235)
Качество: BDRip-AVC BDRemux 1080p
Формат: MKV
Видео: AVC 3280 Kbps 1152 x 624 (1.846) 23.976 fps
Аудио: AC-3 448 Kbps 6 channels, 48.0 KHz Rus Dub BD 3D CEE
Аудио 2: AC-3 448 Kbps 6 channels, 48.0 KHz Ukr Dub BD 3D CEE
Аудио 3: AC-3 448 Kbps 6 channels, 48.0 KHz Eng
Субтитры: Rus, English, English (SDH), French, Spanish SRT

MI | Log

Log
x264 [info]: frame I:1253 Avg QP:15.27 size:114134
x264 [info]: frame P:37471 Avg QP:16.85 size: 34091
x264 [info]: frame B:101604 Avg QP:19.84 size: 10294
x264 [info]: consecutive B-frames: 4.7% 5.2% 8.8% 46.8% 10.0% 15.1% 2.6% 5.3% 0.5% 0.4% 0.2% 0.4% 0.0% 0.1% 0.0%
x264 [info]: mb I I16..4: 5.2% 69.2% 25.6%
x264 [info]: mb P I16..4: 1.1% 13.5% 2.4% P16..4: 26.7% 30.8% 12.9% 2.9% 0.4% skip: 9.4%
x264 [info]: mb B I16..4: 0.2% 1.6% 0.3% B16..8: 30.9% 19.3% 3.5% direct: 4.3% skip:40.0% L0:40.8% L1:45.8% BI:13.3%
x264 [info]: 8x8 transform intra:78.2% inter:54.9%
x264 [info]: direct mvs spatial:99.9% temporal:0.1%
x264 [info]: coded y,uvDC,uvAC intra: 89.0% 85.3% 67.8% inter: 19.9% 16.9% 6.7%
x264 [info]: i16 v,h,dc,p: 13% 23% 5% 59%
x264 [info]: i8 v,h,dc,ddl,ddr,vr,hd,vl,hu: 9% 11% 6% 9% 13% 12% 14% 12% 15%
x264 [info]: i4 v,h,dc,ddl,ddr,vr,hd,vl,hu: 9% 14% 5% 8% 14% 12% 14% 10% 13%
x264 [info]: i8c dc,h,v,p: 37% 30% 17% 16%
x264 [info]: Weighted P-Frames: Y:4.0% UV:3.1%
x264 [info]: ref P L0: 51.6% 9.2% 14.6% 6.3% 4.5% 3.6% 3.0% 2.1% 1.7% 1.6% 1.5% 0.3% 0.0%
x264 [info]: ref B L0: 76.4% 9.7% 4.7% 2.6% 1.9% 1.5% 1.3% 1.0% 0.6% 0.3%
x264 [info]: ref B L1: 93.7% 6.3%
x264 [info]: kb/s:3371.18
x264 [total]: encoded 140328 frames, 8.12 fps, 3371.19 kb/s, duration 4:47:51.66
Format : Matroska
Format version : Version 4 / Version 2
File size : 3.21 GiB
Duration : 1h 37mn
Overall bit rate : 4 718 Kbps
Encoded date : UTC 2015-05-18 22:59:45
Writing application : mkvmerge v6.7.0 ('Back to the Ground') 32bit built on Jan 8 2014 15:03:17
Writing library : libebml v1.3.0 + libmatroska v1.4.1
Video
ID : 1
Format : AVC
Format/Info : Advanced Video Codec
Format profile : High@L4.1
Format settings, CABAC : Yes
Format settings, ReFrames : 11 frames
Codec ID : V_MPEG4/ISO/AVC
Duration : 1h 37mn
Bit rate : 3 280 Kbps
Width : 1 152 pixels
Height : 624 pixels
Display aspect ratio : 1.85:1
Frame rate mode : Constant
Frame rate : 23.976 fps
Color space : YUV
Chroma subsampling : 4:2:0
Bit depth : 8 bits
Scan type : Progressive
Bits/(Pixel*Frame) : 0.190
Stream size : 2.24 GiB (70%)
Title : Arthur Christmas (2011) [rutracker.org]
Writing library : x264 core 144 r2525kMod 40bb568
Encoding settings : cabac=1 / ref=11 / deblock=1:-2:-1 / analyse=0x3:0x133 / me=umh / subme=11 / psy=1 / fade_compensate=0.00 / psy_rd=1.00:0.05 / mixed_ref=1 / me_range=32 / chroma_me=1 / trellis=2 / 8x8dct=1 / cqm=0 / deadzone=21,11 / fast_pskip=0 / chroma_qp_offset=-3 / threads=12 / lookahead_threads=3 / sliced_threads=0 / nr=0 / decimate=1 / interlaced=0 / bluray_compat=0 / constrained_intra=0 / fgo=0 / bframes=14 / b_pyramid=2 / b_adapt=2 / b_bias=0 / direct=3 / weightb=1 / open_gop=0 / weightp=2 / keyint=250 / keyint_min=23 / scenecut=40 / intra_refresh=0 / rc_lookahead=70 / rc=crf / mbtree=0 / crf=17.3000 / qcomp=0.60 / qpmin=0 / qpmax=69 / qpstep=4 / vbv_maxrate=50000 / vbv_bufsize=62500 / crf_max=0.0 / nal_hrd=none / filler=0 / ip_ratio=1.40 / pb_ratio=1.30 / aq=3:0.90
Language : English
Default : Yes
Forced : No
Audio #1
ID : 2
Format : AC-3
Format/Info : Audio Coding 3
Mode extension : CM (complete main)
Format settings, Endianness : Big
Codec ID : A_AC3
Duration : 1h 37mn
Bit rate mode : Constant
Bit rate : 448 Kbps
Channel(s) : 6 channels
Channel positions : Front: L C R, Side: L R, LFE
Sampling rate : 48.0 KHz
Bit depth : 16 bits
Compression mode : Lossy
Stream size : 313 MiB (9%)
Title : DUB [Blu-ray 3D CEE]
Language : Russian
Default : Yes
Forced : No
Audio #2
ID : 3
Format : AC-3
Format/Info : Audio Coding 3
Mode extension : CM (complete main)
Format settings, Endianness : Big
Codec ID : A_AC3
Duration : 1h 37mn
Bit rate mode : Constant
Bit rate : 448 Kbps
Channel(s) : 6 channels
Channel positions : Front: L C R, Side: L R, LFE
Sampling rate : 48.0 KHz
Bit depth : 16 bits
Compression mode : Lossy
Stream size : 313 MiB (9%)
Title : DUB [Blu-ray 3D CEE]
Language : Ukrainian
Default : No
Forced : No
Audio #3
ID : 4
Format : AC-3
Format/Info : Audio Coding 3
Mode extension : CM (complete main)
Format settings, Endianness : Big
Codec ID : A_AC3
Duration : 1h 37mn
Bit rate mode : Constant
Bit rate : 448 Kbps
Channel(s) : 6 channels
Channel positions : Front: L C R, Side: L R, LFE
Sampling rate : 48.0 KHz
Bit depth : 16 bits
Compression mode : Lossy
Stream size : 313 MiB (9%)
Title : Original
Language : English
Default : No
Forced : No
Text #1
ID : 5
Format : UTF-8
Codec ID : S_TEXT/UTF8
Codec ID/Info : UTF-8 Plain Text
Title : Full
Language : Russian
Default : No
Forced : No
Text #2
ID : 6
Format : UTF-8
Codec ID : S_TEXT/UTF8
Codec ID/Info : UTF-8 Plain Text
Title : Full
Language : French
Default : No
Forced : No
Text #3
ID : 7
Format : UTF-8
Codec ID : S_TEXT/UTF8
Codec ID/Info : UTF-8 Plain Text
Title : Full
Language : Spanish
Default : No
Forced : No
Text #4
ID : 8
Format : UTF-8
Codec ID : S_TEXT/UTF8
Codec ID/Info : UTF-8 Plain Text
Title : Full
Language : English
Default : No
Forced : No
Text #5
ID : 9
Format : UTF-8
Codec ID : S_TEXT/UTF8
Codec ID/Info : UTF-8 Plain Text
Title : SDH
Language : English
Default : No
Forced : No
Menu
00:00:00.000 : en:Chapter 1
00:04:37.777 : en:Chapter 2
00:08:52.615 : en:Chapter 3
00:16:27.153 : en:Chapter 4
00:19:48.729 : en:Chapter 5
00:23:23.819 : en:Chapter 6
00:28:59.321 : en:Chapter 7
00:33:28.924 : en:Chapter 8
00:39:22.277 : en:Chapter 9
00:44:45.558 : en:Chapter 10
00:52:49.375 : en:Chapter 11
00:58:48.942 : en:Chapter 12
01:06:00.290 : en:Chapter 13
01:13:49.342 : en:Chapter 14
01:20:36.957 : en:Chapter 15
01:29:48.174 : en:Chapter 16

Скриншоты





_________________
Показать сообщения:    

Текущее время: Сегодня 12:23

Часовой пояс: GMT



Вы не можете начинать темы
Вы не можете отвечать на сообщения
Вы не можете редактировать свои сообщения
Вы не можете удалять свои сообщения
Вы не можете голосовать в опросах
Вы не можете прикреплять файлы к сообщениям
Вы не можете скачивать файлы