Важное объявление!
У Нас Все раздачи мультитрекерные, при нуле пиров в релизах, можете смело вставать на закачку!
 
Автор Сообщение

HUNTER

Стаж:
4 года 8 месяцев
Сообщений:
61998

Репутация: 101

[+] [-]
Вне форума [Профиль] [ЛС]

Сейчас вы его видите, теперь - нет / Видим - невидим / Now You See Him, Now You Don't
Страна: США
Студия: Walt Disney Productions
Жанр: комедия, фантастика, семейный
Год выпуска: 1972
Продолжительность: 01:28:24
Перевод: Одноголосый закадровый duckling-by2 (Андрей Черницкий)
Cубтитры: английские
Оригинальная аудиодорожка: английский
Режиссер: Роберт Батлер / Robert Butler
В ролях: Курт Рассел / Kurt Russell, Сезар Ромеро / Cesar Romero, Джо Флинн / Joe Flynn, Джим Бакус / Jim Backus, Уильям Уиндом / William Windom, Майкл МакГриви / Michael McGreevey, Ричард Бакалян / Richard Bakalyan, Джойс Менжес / Joyce Menges, Алан Хьюит / Alan Hewitt, Келли Тордсен / Kelly Thordsen
Описание: Студент-недотепа Декстер Райли (Курт Рассел) создает загадочную жидкость, которая может сделать невидимой любую вещь. В ходе дальнейших разработок выясняется, что под ее воздействием невидимым может стать и человек. Удивительное открытие Райли приводит к неожиданным событиям, когда шайка мошенников под руководством пресловутого Эй Джей Арно (Сезар Ромеро) похищает формулу и пытается использовать ее в далеко не самых законных целях.
II Сэмпл II IMDB II
Тип релиза: WEB-DL 1080p
Контейнер: MKV
Видео: AVC / 1916x1076 / 16:9 / 23.976fps / Bit rate 5214Kbps
Аудио 1: AC3 / 48.0 KHz / 2ch. / 192kbps / rus / VO / duckling-by2 (Андрей Черницкий)
Аудио 2: AAC-LC / 48.0 KHz / 2ch. / 104kbps / eng
Формат субтитров: softsub (SRT)

MediaInfo

Общее
Уникальный идентификатор : 189434072969049979855395133606893694219 (0x8E83ACE48359B44DB78FD94E6B93AD0B)
Полное имя : G:\!!!_torrent\Now.You.See.Him.Now.You.Dont.1972.WEB-DL.1080p_by_vedigo.mkv
Формат : Matroska
Версия формата : Version 4 / Version 2
Размер файла : 3,40 Гбайт
Продолжительность : 1 ч. 28 м.
Общий поток : 5513 Кбит/сек
Название фильма : Now.You.See.Him.Now.You.Dont.1972.WEB-DL.1080p_by_vedigo
Дата кодирования : UTC 2015-12-10 06:23:55
Программа кодирования : mkvmerge v8.6.1 ('Flying') 64bit
Библиотека кодирования : libebml v1.3.3 + libmatroska v1.4.4
Видео
Идентификатор : 1
Формат : AVC
Формат/Информация : Advanced Video Codec
Профиль формата : High@L4
Параметр CABAC формата : Да
Параметр ReFrames формата : 4 кадра
Идентификатор кодека : V_MPEG4/ISO/AVC
Продолжительность : 1 ч. 28 м.
Битрейт : 5214 Кбит/сек
Ширина : 1916 пикселей
Высота : 1076 пикселей
Соотношение сторон : 16:9
Режим частоты кадров : Постоянный
Частота кадров : 23,976 кадра/сек
Цветовое пространство : YUV
Субдискретизация насыщенности : 4:2:0
Битовая глубина : 8 бит
Тип развёртки : Прогрессивная
Бит/(Пиксели*Кадры) : 0.105
Размер потока : 3,22 Гбайт (95%)
Заголовок : Now.You.See.Him.Now.You.Dont.1972.WEB-DL.1080p_by_vedigo
Default : Да
Forced : Нет
Цветовой диапазон : Limited
Основные цвета : BT.709
Характеристики трансфера : BT.709
Коэффициенты матрицы : BT.709
Аудио #1
Идентификатор : 2
Формат : AC-3
Формат/Информация : Audio Coding 3
Расширение режима : CM (complete main)
Параметр Endianness формата : Big
Идентификатор кодека : A_AC3
Продолжительность : 1 ч. 28 м.
Вид битрейта : Постоянный
Битрейт : 192 Кбит/сек
Каналы : 2 канала
Расположение каналов : Front: L R
Частота : 48,0 КГц
Частота кадров : 31,250 кадров/сек (1536 spf)
Метод сжатия : С потерями
Размер потока : 121 Мбайт (3%)
Заголовок : VO @ duckling-by2 (Андрей Черницкий)
Язык : Russian
Default : Да
Forced : Нет
Аудио #2
Идентификатор : 3
Формат : AAC
Формат/Информация : Advanced Audio Codec
Профиль формата : LC
Идентификатор кодека : A_AAC
Продолжительность : 1 ч. 28 м.
Битрейт : 104 Кбит/сек
Каналы : 2 канала
Расположение каналов : Front: L R
Частота : 48,0 КГц
Частота кадров : 46,875 кадров/сек (1024 spf)
Метод сжатия : С потерями
Размер потока : 65,5 Мбайт (2%)
Заголовок : original
Язык : English
Default : Нет
Forced : Нет
Текст
Идентификатор : 4
Формат : UTF-8
Идентификатор кодека : S_TEXT/UTF8
Идентификатор кодека/Информация : UTF-8 Plain Text
Продолжительность : 1 ч. 27 м.
Битрейт : 83 бит/сек
Count of elements : 1445
Размер потока : 53,5 Кбайт (0%)
Заголовок : subtitle eng
Язык : English
Default : Нет
Forced : Нет
Меню
00:00:00.000 : en:Opening Credits
00:09:51.000 : en:Lightning Strikes
00:19:43.000 : en:A Secret Plan
00:30:15.000 : en:The Invisible Swing
00:39:44.000 : en:A Losing Battle
00:49:47.000 : en:Forsythe Visits Medfield
00:57:16.000 : en:"A Disgraced Science"
01:00:37.000 : en:A Message For Mr. Arno
01:05:00.000 : en:Invisible Robbers
01:14:01.000 : en:Invisible Getaway Car
01:20:42.000 : en:The Chase
01:28:10.000 : en:Closing Credits

Скриншоты



_________________
Показать сообщения:    

Текущее время: Сегодня 00:16

Часовой пояс: GMT



Вы не можете начинать темы
Вы не можете отвечать на сообщения
Вы не можете редактировать свои сообщения
Вы не можете удалять свои сообщения
Вы не можете голосовать в опросах
Вы не можете прикреплять файлы к сообщениям
Вы не можете скачивать файлы
Наши партнеры: интернет магазин Ивановского трикотажа textilla.ru