Ивановский Торрент трекер
Яндекс.Погода
 

[Цитировать]
HUNTER

Сезон охоты 4: Страшно глупо / Open Season: Scared Silly
Страна: США
Жанр: мультфильм
Продолжительность: 01:24:45
Год выпуска: 2015
Перевод: Любительский (многоголосый закадровый)
Русские субтитры: нет
Режиссёр: Дэвид Фейсс / David Feyss
Роли озвучивали: Кэтлин Барр, Гари Чок, Тревор Дивэлл, Донни Джеймс Лукас, Мелисса Штурм, Мэттью В. Тейлор, Will Townsend
Описание: Элиот, Буг и вся их лесная братва попадают в совершенно новое и очень-очень смешное приключение.

Доп.информация:Релиз без рекламы !
Качество:HDRip
Формат:AVI
Видео:XviD build 50, 23.976 fps,1912 kbps avg, 720x400
Аудио:AC3 Dolby Digital, 384 Кбит/сек (2 ch),48 kHz,2/0 (L,R) ch
Субтитры: нет

Подробные технические данные

ОбщееПолное имя : E:\Мои фильмы\7eZ0n.0xo3i.4.2015.L.HDRip.1.37GB.by.toxics.aviФормат : AVIФормат/Информация : Audio Video InterleaveРазмер файла : 1,37 ГбайтПродолжительность : 1 ч. 24 м.Общий поток : 2306 Кбит/секПрограмма кодирования : VirtualDubMod 1.5.10.2 (build 2540/release)Библиотека кодирования : VirtualDubMod build 2540/release
ВидеоИдентификатор : 0Формат : MPEG-4 VisualПрофиль формата : Advanced Simple@L5Параметр BVOP формата : 2Параметр QPel формата : НетПараметр GMC формата : Без точки переходаПараметр матрицы формата : ВыборочнаяИдентификатор кодека : XVIDИдентификатор кодека/Подсказка : XviDПродолжительность : 1 ч. 24 м.Битрейт : 1913 Кбит/секШирина : 720 пикселейВысота : 400 пикселейСоотношение сторон : 16:9Частота кадров : 23,976 (23976/1000) кадра/секЦветовое пространство : YUVСубдискретизация насыщенности : 4:2:0Битовая глубина : 8 битТип развёртки : ПрогрессивнаяМетод сжатия : С потерямиБит/(Пиксели*Кадры) : 0.277Размер потока : 1,13 Гбайт (83%)Библиотека кодирования : XviD 1.2.1 (UTC 2008-12-04)
АудиоИдентификатор : 1Формат : AC-3Формат/Информация : Audio Coding 3Расширение режима : CM (complete main)Параметр Endianness формата : BigИдентификатор кодека : 2000Продолжительность : 1 ч. 24 м.Вид битрейта : ПостоянныйБитрейт : 384 Кбит/секКаналы : 2 каналаРасположение каналов : Front: L RЧастота : 48,0 КГцЧастота кадров : 31,250 кадров/сек (1536 spf)Метод сжатия : С потерямиРазмер потока : 233 Мбайт (17%)Выравнивание : Разделение по промежуткамПродолжительность промежутка : 42 мс. (1,00 видеокадр)Время предзагрузки промежутка : 500 мс.

Скриншоты

Показать сообщения:    

Текущее время: 22-Сен 10:52

Часовой пояс: UTC - 1


Вы не можете начинать темы
Вы не можете отвечать на сообщения
Вы не можете редактировать свои сообщения
Вы не можете удалять свои сообщения
Вы не можете голосовать в опросах
Вы не можете прикреплять файлы к сообщениям
Вы не можете скачивать файлы

!ВНИМАНИЕ!
Сайт не предоставляет электронные версии произведений, а занимается лишь коллекционированием и каталогизацией ссылок, присылаемых и публикуемых на форуме нашими читателями. Если вы являетесь правообладателем какого-либо представленного материала и не желаете, чтобы ссылка на него находилась в нашем каталоге, свяжитесь с нами, и мы незамедлительно удалим ее. Файлы для обмена на трекере предоставлены пользователями сайта, и администрация не несет ответственности за их содержание. Просьба не заливать файлы, защищенные авторскими правами, а также файлы нелегального содержания!