Важное объявление!
У Нас Все раздачи мультитрекерные, при нуле пиров в релизах, можете смело вставать на закачку!
 
Автор Сообщение

HUNTER

Стаж:
4 года 8 месяцев
Сообщений:
62003

Репутация: 101

[+] [-]
Вне форума [Профиль] [ЛС]

Сезон охоты 4: Страшно глупо
Open Season: Scared Silly
-
Год выпуска: 2015
Страна: США
Жанр: мультфильм
Продолжительность: 01:24:45
Перевод: Любительский (Многоголосый закадровый) - Parovoz Production
русские субтитры: есть Forced-Режиссёр: Дэвид Фейсс : David Feyss-Роли озвучивали: Кэтлин Барр, Гари Чок, Тревор Дивэлл, Донни Джеймс Лукас, Мелисса Штурм, Мэттью В. Тейлор-Описание
Элиот, Буг и вся их лесная братва попадают в совершенно новое и очень-очень смешное приключение.
- релиз: -Качество: BDRip-AVC [url=viewtopic.php?t=5180148]BDRemux 1080p[/url] -Azureus-
Формат: MKV
Видео кодек: AVC
Аудио кодек: AC3
Видео AVC 2951 Kbps 1152 x 648 (1.778) 23.976 fps
Аудио #1 [RUS] 48 kHz, AC3 Dolby Digital, 2/0 (L,R) ch, ~192 kbps
Аудио #2: [ENG] AC-3 448 Kbps 6 channels, 48.0 KHz
субтитры: русские - forced, английские - full, sdh
навигация по главам: 16 глав (не именные)

Скриншоты



MediaInfo | Log

Log
x264 [info]: frame I:1283 Avg QP:13.68 size:150345
x264 [info]: frame P:33161 Avg QP:15.16 size: 29089
x264 [info]: frame B:87476 Avg QP:18.39 size: 8723
x264 [info]: consecutive B-frames: 3.8% 6.2% 8.9% 57.5% 8.5% 9.7% 1.5% 3.0% 0.3% 0.2% 0.1% 0.3% 0.0% 0.0% 0.0%
x264 [info]: mb I I16..4: 6.2% 68.2% 25.6%
x264 [info]: mb P I16..4: 0.8% 10.8% 1.8% P16..4: 21.1% 20.4% 10.7% 2.6% 0.5% skip:31.3%
x264 [info]: mb B I16..4: 0.1% 1.9% 0.3% B16..8: 21.5% 12.4% 2.8% direct: 3.0% skip:58.0% L0:38.8% L1:47.9% BI:13.3%
x264 [info]: 8x8 transform intra:78.9% inter:53.6%
x264 [info]: direct mvs spatial:100.0% temporal:0.0%
x264 [info]: coded y,uvDC,uvAC intra: 89.2% 86.9% 75.7% inter: 14.0% 12.1% 6.1%
x264 [info]: i16 v,h,dc,p: 16% 13% 8% 64%
x264 [info]: i8 v,h,dc,ddl,ddr,vr,hd,vl,hu: 11% 12% 8% 9% 11% 11% 12% 12% 15%
x264 [info]: i4 v,h,dc,ddl,ddr,vr,hd,vl,hu: 12% 10% 8% 8% 15% 13% 13% 10% 12%
x264 [info]: i8c dc,h,v,p: 38% 28% 16% 18%
x264 [info]: Weighted P-Frames: Y:2.6% UV:1.7%
x264 [info]: ref P L0: 57.1% 7.9% 12.8% 5.5% 3.8% 3.5% 2.7% 1.8% 1.5% 1.6% 1.5% 0.3% 0.0%
x264 [info]: ref B L0: 77.1% 9.2% 4.8% 2.4% 1.9% 1.5% 1.3% 0.9% 0.6% 0.3%
x264 [info]: ref B L1: 93.4% 6.6%
x264 [info]: kb/s:3021.42
x264 [total]: encoded 121920 frames, 8.78 fps, 3021.42 kb/s, duration 3:51:23.14
Format : Matroska
Format version : Version 4 / Version 2
File size : 2.17 GiB
Duration : 1h 24mn
Overall bit rate : 3 664 Kbps
Encoded date : UTC 2016-03-02 13:34:00
Writing application : mkvmerge v6.7.0 ('Back to the Ground') 32bit built on Jan 8 2014 15:03:17
Writing library : libebml v1.3.0 + libmatroska v1.4.1
Video
ID : 1
Format : AVC
Format/Info : Advanced Video Codec
Format profile : High@L4.1
Format settings, CABAC : Yes
Format settings, ReFrames : 11 frames
Codec ID : V_MPEG4/ISO/AVC
Duration : 1h 24mn
Bit rate : 2 951 Kbps
Width : 1 152 pixels
Height : 648 pixels
Display aspect ratio : 16:9
Frame rate mode : Constant
Frame rate : 23.976 fps
Color space : YUV
Chroma subsampling : 4:2:0
Bit depth : 8 bits
Scan type : Progressive
Bits/(Pixel*Frame) : 0.165
Stream size : 1.75 GiB (81%)
Title : Open Season: Scared Silly (2015) [rutracker.org]
Writing library : x264 core 148 r2638kMod 7599210
Encoding settings : cabac=1 / ref=11 / deblock=1:-2:-2 / analyse=0x3:0x133 / me=umh / subme=11 / psy=1 / fade_compensate=0.00 / psy_rd=1.00:0.05 / mixed_ref=1 / me_range=48 / chroma_me=1 / trellis=2 / 8x8dct=1 / cqm=0 / deadzone=21,11 / fast_pskip=0 / chroma_qp_offset=-3 / threads=12 / lookahead_threads=3 / sliced_threads=0 / nr=0 / decimate=1 / interlaced=0 / bluray_compat=0 / constrained_intra=0 / fgo=0 / bframes=14 / b_pyramid=2 / b_adapt=2 / b_bias=0 / direct=3 / weightb=1 / open_gop=0 / weightp=2 / keyint=250 / keyint_min=23 / scenecut=40 / intra_refresh=0 / rc_lookahead=60 / rc=crf / mbtree=0 / crf=17.1000 / qcomp=0.60 / qpmin=0 / qpmax=69 / qpstep=4 / vbv_maxrate=50000 / vbv_bufsize=62500 / crf_max=0.0 / nal_hrd=none / filler=0 / ip_ratio=1.40 / pb_ratio=1.30 / aq=3:0.90
Language : English
Default : Yes
Forced : No
Audio #1
ID : 2
Format : AC-3
Format/Info : Audio Coding 3
Mode extension : CM (complete main)
Format settings, Endianness : Big
Codec ID : A_AC3
Duration : 1h 24mn
Bit rate mode : Constant
Bit rate : 192 Kbps
Channel(s) : 2 channels
Channel positions : Front: L R
Sampling rate : 48.0 KHz
Compression mode : Lossy
Stream size : 116 MiB (5%)
Title : MVO [Parovoz Production]
Language : Russian
Default : Yes
Forced : No
Audio #2
ID : 3
Format : AC-3
Format/Info : Audio Coding 3
Mode extension : CM (complete main)
Format settings, Endianness : Big
Codec ID : A_AC3
Duration : 1h 24mn
Bit rate mode : Constant
Bit rate : 448 Kbps
Channel(s) : 6 channels
Channel positions : Front: L C R, Side: L R, LFE
Sampling rate : 48.0 KHz
Compression mode : Lossy
Stream size : 272 MiB (12%)
Title : Original
Language : English
Default : No
Forced : No
Text #1
ID : 4
Format : UTF-8
Codec ID : S_TEXT/UTF8
Codec ID/Info : UTF-8 Plain Text
Title : Forced
Language : Russian
Default : Yes
Forced : No
Text #2
ID : 5
Format : UTF-8
Codec ID : S_TEXT/UTF8
Codec ID/Info : UTF-8 Plain Text
Title : Full
Language : English
Default : No
Forced : No
Text #3
ID : 6
Format : UTF-8
Codec ID : S_TEXT/UTF8
Codec ID/Info : UTF-8 Plain Text
Title : SDH
Language : English
Default : No
Forced : No
Menu
00:00:00.000 : en:Chapter 1
00:05:02.635 : en:Chapter 2
00:10:01.309 : en:Chapter 3
00:13:58.671 : en:Chapter 4
00:18:57.469 : en:Chapter 5
00:25:54.886 : en:Chapter 6
00:33:20.915 : en:Chapter 7
00:39:17.229 : en:Chapter 8
00:42:02.102 : en:Chapter 9
00:47:39.356 : en:Chapter 10
00:54:00.528 : en:Chapter 11
00:58:00.643 : en:Chapter 12
01:03:17.460 : en:Chapter 13
01:08:40.366 : en:Chapter 14
01:14:53.655 : en:Chapter 15
01:18:20.904 : en:Chapter 16

_________________
Показать сообщения:    

Текущее время: Сегодня 09:07

Часовой пояс: GMT



Вы не можете начинать темы
Вы не можете отвечать на сообщения
Вы не можете редактировать свои сообщения
Вы не можете удалять свои сообщения
Вы не можете голосовать в опросах
Вы не можете прикреплять файлы к сообщениям
Вы не можете скачивать файлы
Наши партнеры: интернет магазин Ивановского трикотажа textilla.ru