Ивановский Торрент трекер
Яндекс.Погода
Статистика раздачи
Размер:  3.43 GB   |    Зарегистрирован:  2 года   |    Скачан:  0 раз

Полного источника не было: Никогда

 
     
 
 
 

[Цитировать]
HUNTER

Сегодня в меню / Today's Special
Страна: США
Студия: Inimitable Pictures, Sweet180
Жанр: комедия
Год выпуска: 2009
Продолжительность: 01:38:52
Перевод: Профессиональный (многоголосый закадровый)
Cубтитры: английские
Оригинальная аудиодорожка: английский
Режиссер: Дэвид Каплан / David Kaplan
В ролях: Арти Манн, Дин Уинтерс, Джесс Вейкслер, Аасиф Мандви, Кевин Корригэн, Амир Арисон, Насируддин Шах, Аджай Найду, Кумар Паллана, Кевин Брезнахан
Описание: Как пробиться в жизни и произвести впечатление на девушек? Самир считает, что помочь ему в этом должны курсы знаменитого французского шеф-повара, которые позволят устроиться на работу в один из престижных ресторанов Манхэттена. Однако несчастный случай с его отцом нарушает его планы. Вместо работы в Манхэттене Самир вынужден встать у руля скромного семейного ресторанчика индийской кухни. Поначалу дела у него не клеятся и он близок к отчаянию, пока однажды он не встречает таксиста, влюбленного в индийскую кухню. Тот заставляет Самира поверить в себя и объясняет, что главный секрет кулинарии — больше доверять своим чувствам, а не рецептам.

Sample
Тип релиза: WEB-DL 720p
Контейнер: MKV
Видео: MPEG4 AVC Video, H264, 16:9, 1274x720, 23.976 fps, 4032 kbps
Аудио: Russian (AC3, 6 ch, 448 kbps, 16 bits, 48.0 KHz) - MVO
Аудио 2: English (AC3, 6 ch, 384 kbps, 16 bits, 48.0 KHz) - оригинал
Формат субтитров: softsub (SRT)

MediaInfo

General
Unique ID : 170850906485294191292007147993910409021 (0x8088B00BF711B29D876EA3C0FB52F73D)
Complete name : E:\Todays Special 2009 WEB-DL 720p.mkv
Format : Matroska
Format version : Version 4 / Version 2
File size : 3.43 GiB
Duration : 1h 38mn
Overall bit rate : 4 963 Kbps
Encoded date : UTC 2015-10-10 22:19:57
Writing application : mkvmerge v6.1.0 ('Old Devil') built on Mar 2 2013 14:32:37
Writing library : libebml v1.3.0 + libmatroska v1.4.0
Video
ID : 1
Format : AVC
Format/Info : Advanced Video Codec
Format profile : High@L3.1
Format settings, CABAC : No
Format settings, ReFrames : 2 frames
Codec ID : V_MPEG4/ISO/AVC
Duration : 1h 38mn
Bit rate : 4 032 Kbps
Width : 1 274 pixels
Height : 720 pixels
Display aspect ratio : 16:9
Frame rate mode : Constant
Frame rate : 23.976 fps
Color space : YUV
Chroma subsampling : 4:2:0
Bit depth : 8 bits
Scan type : Progressive
Bits/(Pixel*Frame) : 0.183
Stream size : 2.78 GiB (81%)
Language : English
Default : Yes
Forced : No
Color primaries : BT.709
Transfer characteristics : BT.709
Matrix coefficients : BT.709
Audio #1
ID : 2
Format : AC-3
Format/Info : Audio Coding 3
Mode extension : CM (complete main)
Format settings, Endianness : Big
Codec ID : A_AC3
Duration : 1h 38mn
Bit rate mode : Constant
Bit rate : 448 Kbps
Channel count : 6 channels
Channel positions : Front: L C R, Side: L R, LFE
Sampling rate : 48.0 KHz
Bit depth : 16 bits
Compression mode : Lossy
Stream size : 317 MiB (9%)
Language : Russian
Default : Yes
Forced : No
Audio #2
ID : 3
Format : AC-3
Format/Info : Audio Coding 3
Mode extension : CM (complete main)
Format settings, Endianness : Big
Codec ID : A_AC3
Duration : 1h 38mn
Bit rate mode : Constant
Bit rate : 384 Kbps
Channel count : 6 channels
Channel positions : Front: L C R, Side: L R, LFE
Sampling rate : 48.0 KHz
Bit depth : 16 bits
Compression mode : Lossy
Stream size : 272 MiB (8%)
Language : English
Default : No
Forced : No
Text
ID : 4
Format : UTF-8
Codec ID : S_TEXT/UTF8
Codec ID/Info : UTF-8 Plain Text
Language : English
Default : No
Forced : No
Menu
00:00:00.000 : en:Introduction
00:03:00.000 : en:Last Day
00:13:03.000 : en:Being Single
00:26:07.000 : en:Family Business
00:38:04.000 : en:New Opportunities
00:44:45.000 : en:Special Breakfast
00:50:16.000 : en:Spice of Life
01:00:58.000 : en:Date Night
01:11:40.000 : en:New Look
01:19:42.000 : en:Trust Me
01:25:07.000 : en:Big Night
01:35:45.000 : en:Credits

Скриншоты

[iv-torrents.ru].t52120.torrent
Торрент: Зарегистрирован [ 2015-12-08 11:00 ] · AD3B085E3CB8C8D0410FE53D285A43645E985382

Скачать .torrent

Скачать

18 KB

Статус: проверено
Скачан: 0 раз
Размер: 3.43 GB
terms.php


Показать сообщения:    

Текущее время: 13-Дек 15:17

Часовой пояс: UTC ± 0


Вы не можете начинать темы
Вы не можете отвечать на сообщения
Вы не можете редактировать свои сообщения
Вы не можете удалять свои сообщения
Вы не можете голосовать в опросах
Вы не можете прикреплять файлы к сообщениям
Вы можете скачивать файлы

!ВНИМАНИЕ!
Сайт не предоставляет электронные версии произведений, а занимается лишь коллекционированием и каталогизацией ссылок, присылаемых и публикуемых на форуме нашими читателями. Если вы являетесь правообладателем какого-либо представленного материала и не желаете, чтобы ссылка на него находилась в нашем каталоге, свяжитесь с нами, и мы незамедлительно удалим ее. Файлы для обмена на трекере предоставлены пользователями сайта, и администрация не несет ответственности за их содержание. Просьба не заливать файлы, защищенные авторскими правами, а также файлы нелегального содержания!