Ивановский Торрент трекер
Яндекс.Погода
 

[Цитировать]
HUNTER

Северо-запад / Northwest-Год выпуска: 2013
Страна: Дания
Жанр: боевик, драма, криминал
Продолжительность: 01:30:25
Перевод: Любительское (одноголосое) [den904]
Авторское (одноголосое) [А.Алексеев]

Субтитры: English-В ролях: Густав Дюэкьер Гис, Оскар Дюэкьер Гис, Лене Мария Кристенсен, Аннамики Бредал Пепинк, Николас Вествуд Кидд, Роланд Мюллер, Дульфи Аль-Джабури, Клемент Блэк Петерсен
Режиссёр: Михаэль Ноер-Описание: Северо-запад Копенгагена является одним из самых бедных и многонациональных районов города. 18-летний Каспер живет здесь со своей матерью, младшим братом и маленькой сестрой. Чтобы свести концы с концами, он вместе со своим другом Робином совершает мелкие кражи из домов, сбывая краденое местному главарю Джамалу, контролирующему небольшую банду в этом районе. Но амбициозный Каспер не хочет, рискуя собой, зависеть от него, рыская ночью по домам за те небольшие наличные, которые он платит взамен. После встречи с Бьорном, одним из лидеров организованной преступной группировки, он соглашается работать на него, понимая, что это поможет подняться ему на совершенно иной, новый уровень в уголовной иерархии криминального мира. Поначалу все идет гладко, пока Джамал и банда не решают отомстить ему, воспринимая его уход как предательство, что неминуемо приведет к вооруженной схватке.
Это становится главным испытанием в жизни Каспера: достаточно ли он безжалостен для этого столкновения, сможет ли он защитить брата, невольно подтолкнув его к совершению преступления, и захочет ли сам выбраться из этого преступного мира?
-Качество: BDRip 720p
Формат: MKV
Видео кодек: AVC
Аудио кодек: AC3
Видео: MPEG-4 AVC, 1280x692, 8301 kb/s, 23.976 fps
Аудио 1: Russian - AC3, 6 ch, 448 Кбит/с, 48 KHz [den904]
Аудио 2: Russian - AC3, 6 ch, 448 Кбит/с, 48 KHz [А.Алексеев]
Аудио 3: Danish - AC3, 6 ch, 640 Кбит/с, 48 KHz-

MI

Общее
Уникальный идентификатор : 218325140726357750366489361724843445129 (0xA43FE482559A92CBB76A75F95EAF4B89)
Полное имя :Nordvest_2013_BDRip720p.mkv
Формат : Matroska
Версия формата : Version 4 / Version 2
Размер файла : 6,34 Гбайт
Продолжительность : 1 ч. 30 м.
Общий поток : 10,0 Мбит/сек
Дата кодирования : UTC 2013-11-21 22:17:47
Программа кодирования : mkvmerge v6.5.0 ('Isn't she lovely') built on Oct 20 2013 12:50:05
Библиотека кодирования : libebml v1.3.0 + libmatroska v1.4.1
Видео
Идентификатор : 1
Формат : AVC
Формат/Информация : Advanced Video Codec
Профиль формата : High@L4.1
Параметр CABAC формата : Да
Параметр ReFrames формата : 9 кадров
Идентификатор кодека : V_MPEG4/ISO/AVC
Продолжительность : 1 ч. 30 м.
Битрейт : 8301 Кбит/сек
Ширина : 1280 пикселей
Высота : 692 пикселя
Соотношение сторон : 1,85:1
Режим частоты кадров : Постоянный
Частота кадров : 24,000 кадра/сек
Цветовое пространство : YUV
Субдискретизация насыщенности : 4:2:0
Битовая глубина : 8 бит
Тип развёртки : Прогрессивная
Бит/(Пиксели*Кадры) : 0.390
Размер потока : 5,24 Гбайт (83%)
Заголовок : Release Group CINEMANIA
Язык : Danish
Default : Да
Forced : Нет
Аудио #1
Идентификатор : 2
Формат : AC-3
Формат/Информация : Audio Coding 3
Расширение режима : CM (complete main)
Параметр Endianness формата : Big
Идентификатор кодека : A_AC3
Продолжительность : 1 ч. 30 м.
Вид битрейта : Постоянный
Битрейт : 448 Кбит/сек
Каналы : 6 каналов
Расположение каналов : Front: L C R, Side: L R, LFE
Частота : 48,0 КГц
Битовая глубина : 16 бит
Метод сжатия : С потерями
Размер потока : 290 Мбайт (4%)
Заголовок : den904
Язык : Russian
Default : Да
Forced : Да
Аудио #2
Идентификатор : 3
Формат : AC-3
Формат/Информация : Audio Coding 3
Расширение режима : CM (complete main)
Параметр Endianness формата : Big
Идентификатор кодека : A_AC3
Продолжительность : 1 ч. 30 м.
Вид битрейта : Постоянный
Битрейт : 448 Кбит/сек
Каналы : 6 каналов
Расположение каналов : Front: L C R, Side: L R, LFE
Частота : 48,0 КГц
Битовая глубина : 16 бит
Метод сжатия : С потерями
Размер потока : 290 Мбайт (4%)
Заголовок : A.Алексеев
Язык : Russian
Default : Нет
Forced : Нет
Аудио #3
Идентификатор : 4
Формат : AC-3
Формат/Информация : Audio Coding 3
Расширение режима : CM (complete main)
Параметр Endianness формата : Big
Идентификатор кодека : A_AC3
Продолжительность : 1 ч. 30 м.
Вид битрейта : Постоянный
Битрейт : 640 Кбит/сек
Каналы : 6 каналов
Расположение каналов : Front: L C R, Side: L R, LFE
Частота : 48,0 КГц
Битовая глубина : 16 бит
Метод сжатия : С потерями
Размер потока : 414 Мбайт (6%)
Язык : Danish
Default : Нет
Forced : Нет
Текст
Идентификатор : 5
Формат : UTF-8
Идентификатор кодека : S_TEXT/UTF8
Идентификатор кодека/Информация : UTF-8 Plain Text
Язык : English
Default : Нет
Forced : Нет
Меню
00:00:00.000 : en:00:00:00.000
00:09:59.542 : en:00:09:59.542
00:19:59.875 : en:00:19:59.875
00:29:59.667 : en:00:29:59.667
00:39:59.833 : en:00:39:59.833
00:49:59.583 : en:00:49:59.583
00:59:59.750 : en:00:59:59.750
01:09:59.792 : en:01:09:59.792
01:19:59.875 : en:01:19:59.875

Рейтинг

Рейтинг:

Скриншоты



Показать сообщения:    

Текущее время: 11-Дек 09:45

Часовой пояс: UTC ± 0


Вы не можете начинать темы
Вы не можете отвечать на сообщения
Вы не можете редактировать свои сообщения
Вы не можете удалять свои сообщения
Вы не можете голосовать в опросах
Вы не можете прикреплять файлы к сообщениям
Вы не можете скачивать файлы

!ВНИМАНИЕ!
Сайт не предоставляет электронные версии произведений, а занимается лишь коллекционированием и каталогизацией ссылок, присылаемых и публикуемых на форуме нашими читателями. Если вы являетесь правообладателем какого-либо представленного материала и не желаете, чтобы ссылка на него находилась в нашем каталоге, свяжитесь с нами, и мы незамедлительно удалим ее. Файлы для обмена на трекере предоставлены пользователями сайта, и администрация не несет ответственности за их содержание. Просьба не заливать файлы, защищенные авторскими правами, а также файлы нелегального содержания!