Важное объявление!
У Нас Все раздачи мультитрекерные, при нуле пиров в релизах, можете смело вставать на закачку!
 
Автор Сообщение

HUNTER

Стаж:
4 года 9 месяцев
Сообщений:
65021

Репутация: 101

[+] [-]
Вне форума [Профиль] [ЛС]

Северный космодром
Страна: Россия
Жанр: Документальный
Продолжительность: 17 минут
Год: 1997
Описание: Фильм об истории космодрома Плесецк - единственного, находящимся территориально в Европе, а также самого северного космодрома в мире .
Качество: Telecine
Формат: AVI
Видео кодек: XVID
Аудио кодек: AC-3
Видео: 608х464, 928Kbps, 25.000 fps
Аудио: 48.0 KHz, 96.0 Kbps, 2 channels

Скриншоты

MediaInfo

GeneralComplete name : M:\05. SpaceDust\01.Space\01.USSR\1997 - Северный космодром\Северный космодром (1997).aviFormat : AVIFormat/Info : Audio Video InterleaveFile size : 127 MiBDuration : 17mn 10sOverall bit rate : 1 034 KbpsWriting application : VirtualDubMod 1.5.10.3 (build 2550/release)Writing library : VirtualDubMod build 2550/release
VideoID : 0Format : MPEG-4 VisualFormat profile : Advanced Simple@L5Format settings, BVOP : 1Format settings, QPel : NoFormat settings, GMC : No warppointsFormat settings, Matrix : Default (H.263)Codec ID : XVIDCodec ID/Hint : XviDDuration : 17mn 10sBit rate : 928 KbpsWidth : 608 pixelsHeight : 464 pixelsDisplay aspect ratio : 4:3Frame rate : 25.000 fpsColor space : YUVChroma subsampling : 4:2:0Bit depth : 8 bitsScan type : ProgressiveCompression mode : LossyBits/(Pixel*Frame) : 0.132Stream size : 114 MiB (90%)Writing library : XviD 1.2.1 (UTC 2008-12-04)
AudioID : 1Format : AC-3Format/Info : Audio Coding 3Mode extension : CM (complete main)Format settings, Endianness : BigCodec ID : 2000Duration : 17mn 10sBit rate mode : ConstantBit rate : 96.0 KbpsChannel(s) : 2 channelsChannel positions : Front: L RSampling rate : 48.0 KHzBit depth : 16 bitsCompression mode : LossyStream size : 11.8 MiB (9%)Alignment : Split accross interleavesInterleave, duration : 40 ms (1.00 video frame)Interleave, preload duration : 500 ms
Список фильмов по советской космонавтике

_________________
Показать сообщения:    

Текущее время: Сегодня 14:44

Часовой пояс: GMT



Вы не можете начинать темы
Вы не можете отвечать на сообщения
Вы не можете редактировать свои сообщения
Вы не можете удалять свои сообщения
Вы не можете голосовать в опросах
Вы не можете прикреплять файлы к сообщениям
Вы не можете скачивать файлы