Ивановский Торрент трекер
Яндекс.Погода
 

[Цитировать]
HUNTER

Северный космодром
Страна: Россия
Жанр: Документальный
Продолжительность: 17 минут
Год: 1997
Описание: Фильм об истории космодрома Плесецк - единственного, находящимся территориально в Европе, а также самого северного космодрома в мире .
Качество: Telecine
Формат: AVI
Видео кодек: XVID
Аудио кодек: AC-3
Видео: 608х464, 928Kbps, 25.000 fps
Аудио: 48.0 KHz, 96.0 Kbps, 2 channels

Скриншоты

MediaInfo

GeneralComplete name : M:\05. SpaceDust\01.Space\01.USSR\1997 - Северный космодром\Северный космодром (1997).aviFormat : AVIFormat/Info : Audio Video InterleaveFile size : 127 MiBDuration : 17mn 10sOverall bit rate : 1 034 KbpsWriting application : VirtualDubMod 1.5.10.3 (build 2550/release)Writing library : VirtualDubMod build 2550/release
VideoID : 0Format : MPEG-4 VisualFormat profile : Advanced Simple@L5Format settings, BVOP : 1Format settings, QPel : NoFormat settings, GMC : No warppointsFormat settings, Matrix : Default (H.263)Codec ID : XVIDCodec ID/Hint : XviDDuration : 17mn 10sBit rate : 928 KbpsWidth : 608 pixelsHeight : 464 pixelsDisplay aspect ratio : 4:3Frame rate : 25.000 fpsColor space : YUVChroma subsampling : 4:2:0Bit depth : 8 bitsScan type : ProgressiveCompression mode : LossyBits/(Pixel*Frame) : 0.132Stream size : 114 MiB (90%)Writing library : XviD 1.2.1 (UTC 2008-12-04)
AudioID : 1Format : AC-3Format/Info : Audio Coding 3Mode extension : CM (complete main)Format settings, Endianness : BigCodec ID : 2000Duration : 17mn 10sBit rate mode : ConstantBit rate : 96.0 KbpsChannel(s) : 2 channelsChannel positions : Front: L RSampling rate : 48.0 KHzBit depth : 16 bitsCompression mode : LossyStream size : 11.8 MiB (9%)Alignment : Split accross interleavesInterleave, duration : 40 ms (1.00 video frame)Interleave, preload duration : 500 ms
Список фильмов по советской космонавтике
Показать сообщения:    

Текущее время: 22-Сен 07:16

Часовой пояс: UTC - 1


Вы не можете начинать темы
Вы не можете отвечать на сообщения
Вы не можете редактировать свои сообщения
Вы не можете удалять свои сообщения
Вы не можете голосовать в опросах
Вы не можете прикреплять файлы к сообщениям
Вы не можете скачивать файлы

!ВНИМАНИЕ!
Сайт не предоставляет электронные версии произведений, а занимается лишь коллекционированием и каталогизацией ссылок, присылаемых и публикуемых на форуме нашими читателями. Если вы являетесь правообладателем какого-либо представленного материала и не желаете, чтобы ссылка на него находилась в нашем каталоге, свяжитесь с нами, и мы незамедлительно удалим ее. Файлы для обмена на трекере предоставлены пользователями сайта, и администрация не несет ответственности за их содержание. Просьба не заливать файлы, защищенные авторскими правами, а также файлы нелегального содержания!