Ивановский Торрент трекер
Яндекс.Погода
 

[Цитировать]
HUNTER

Северная Звезда / The North Star- Год выпуска: 1943
Страна: США
Жанр: драма, военный
Продолжительность: 01:46:17
Перевод: Субтитры
Оригинальная аудиодорожка: Английская
Cубтитры: Русские (rjym3), английские-Режиссер: Льюис Mайлстоун / Lewis Milestone
В ролях: Энн Бакстер, Дэна Эндрюс, Уолтер Хьюстон, Уолтер Бреннан, Эрих фон Штрогейм, Энн Хардинг, Джейн Витерс,
Фарли Грейнджер, Дин Джеггер, Эрик Робертс, Карл Бентон Рейд, Энн Картер, Истер Дейл, Рут Нельсон, Пол Джилфойл-Описание:
В фильме описывается героическая борьба советских людей против немецких захватчиков в первые дни войны.
Фильм сначала выдвигался на "Оскар" по шести номинациям, а спустя три года, в 1946, был признан в США просоветской пропагандой.
Комиссия по расследованию антиамериканской деятельности подвергла режиссера, первого в истории лауреата двух "Оскаров", разгнузданной травле.
Он вынужден был эмигрировать из "самой демократической страны" .
В 1957 фильм был укорочен американской цензурой на 26 минут и повторно вышел в прокат под идиотским названием "The Armored Attack" (Бронированная атака).- | IMDb | Сэмпл-Качество: BDRip 720p (SbR)
Контейнер: MKV
Видео: x264, 982x720 (1.37:1), 23.976 fps, 13718 kbps
Аудио: Английский DTS 1.0, 48 kHz, 768 kbps, 16-bit
Формат субтитров: softsub (SRT)

MI

nfo
SoURCE..........: The North Star 1943 1080p Blu-ray AVC DTS-HD MA 1.0-ESiR
FiLE.NAME.......: The North Star 1943 720p BluRay FLAC1.0 x264-SbR
RUNTiME.........: 01:46:16
SiZE............: 10,7 Gb
ViDEO.CODEC.....: x264, l4.1, crf=17.2
FRAMERATE.......: 23.976 fps
BiTRATE.........: 13 717 Kbps
RESOLUTiON......: 982x720
AUDiO...........: English flac 1.0 ~ 730 kbps
CHAPTERS........: Yes (Unnamed)
SUBTiTLES.......: Russian, English
ENCODER.........: nevermnd / #162 release
RELEASE.DATE....: 17/08/2014
x264 info^
x264 [info]: frame I:862 Avg QP:18.40 size:136835
x264 [info]: frame P:28254 Avg QP:19.15 size: 96971
x264 [info]: frame B:123764 Avg QP:21.15 size: 65252
x264 [info]: consecutive B-frames: 0.8% 0.9% 3.7% 18.2% 14.6% 37.3% 8.5% 4.0% 4.7% 2.0% 2.2% 2.3% 0.9%
encoded 152880 frames, 2.90 fps, 13717.61 kb/s, duration 14:37:08.50
General
Unique ID : 199545943382188552016890020961159330627 (0x961F2698797681658665CC3BEBCDBB43)
Complete name : The North Star 1943 720p BluRay DTS1.0 x264-SbR.mkv
Format : Matroska
Format version : Version 2
File size : 10.8 GiB
Duration : 1h 46mn
Overall bit rate : 14.5 Mbps
Movie name : The North Star / Северная Звезда (1943)
Encoded date : UTC 2014-09-09 18:34:34
Writing application : mkvmerge v7.0.0 ('Where We Going') 64bit built on Jun 9 2014 15:16:27
Writing library : libebml v1.3.0 + libmatroska v1.4.1
Attachment : Yes
Video
ID : 1
Format : AVC
Format/Info : Advanced Video Codec
Format profile : High@L4.1
Format settings, CABAC : Yes
Format settings, ReFrames : 11 frames
Codec ID : V_MPEG4/ISO/AVC
Duration : 1h 46mn
Bit rate : 13.4 Mbps
Width : 982 pixels
Height : 720 pixels
Display aspect ratio : 4:3
Frame rate mode : Constant
Frame rate : 23.976 fps
Color space : YUV
Chroma subsampling : 4:2:0
Bit depth : 8 bits
Scan type : Progressive
Bits/(Pixel*Frame) : 0.792
Stream size : 9.97 GiB (93%)
Title : The North Star 1943 720p BluRay FLAC1.0 x264-SbR
Writing library : x264 core 142 r2453kMod ea0ca51
Encoding settings : cabac=1 / ref=11 / deblock=1:-3:-3 / analyse=0x3:0x133 / me=tesa / subme=11 / psy=1 / fade_compensate=0.00 / psy_rd=1.10:0.05 / mixed_ref=1 / me_range=24 / chroma_me=1 / trellis=2 / 8x8dct=1 / cqm=0 / deadzone=21,11 / fast_pskip=0 / chroma_qp_offset=-3 / threads=12 / lookahead_threads=3 / sliced_threads=0 / nr=0 / decimate=1 / interlaced=0 / bluray_compat=0 / constrained_intra=0 / fgo=0 / bframes=12 / b_pyramid=2 / b_adapt=2 / b_bias=0 / direct=3 / weightb=1 / open_gop=0 / weightp=2 / keyint=250 / keyint_min=23 / scenecut=40 / intra_refresh=0 / rc=crf / mbtree=0 / crf=17.2000 / qcomp=0.70 / qpmin=0 / qpmax=69 / qpstep=4 / ip_ratio=1.30 / pb_ratio=1.30 / aq=3:0.65
Language : English
Default : Yes
Forced : No
Color primaries : BT.709
Transfer characteristics : BT.709
Matrix coefficients : BT.709
Audio
ID : 2
Format : DTS
Format/Info : Digital Theater Systems
Mode : 16
Format settings, Endianness : Big
Codec ID : A_DTS
Duration : 1h 46mn
Bit rate mode : Constant
Bit rate : 768 Kbps
Channel(s) : 1 channel
Channel positions : Front: C
Sampling rate : 48.0 KHz
Bit depth : 16 bits
Compression mode : Lossy
Stream size : 584 MiB (5%)
Language : English
Default : Yes
Forced : No
Text #1
ID : 3
Format : UTF-8
Codec ID : S_TEXT/UTF8
Codec ID/Info : UTF-8 Plain Text
Title : rjym3
Language : Russian
Default : Yes
Forced : No
Text #2
ID : 4
Format : UTF-8
Codec ID : S_TEXT/UTF8
Codec ID/Info : UTF-8 Plain Text
Language : English
Default : No
Forced : No
Menu
00:00:00.000 : en:Chapter 1
00:20:49.331 : en:Chapter 2
00:29:54.042 : en:Chapter 3
00:48:15.225 : en:Chapter 4
00:57:01.084 : en:Chapter 5
01:09:18.654 : en:Chapter 6
01:19:23.633 : en:Chapter 7
01:32:54.235 : en:Chapter 8


Показать сообщения:    

Текущее время: 11-Дек 11:40

Часовой пояс: UTC ± 0


Вы не можете начинать темы
Вы не можете отвечать на сообщения
Вы не можете редактировать свои сообщения
Вы не можете удалять свои сообщения
Вы не можете голосовать в опросах
Вы не можете прикреплять файлы к сообщениям
Вы не можете скачивать файлы

!ВНИМАНИЕ!
Сайт не предоставляет электронные версии произведений, а занимается лишь коллекционированием и каталогизацией ссылок, присылаемых и публикуемых на форуме нашими читателями. Если вы являетесь правообладателем какого-либо представленного материала и не желаете, чтобы ссылка на него находилась в нашем каталоге, свяжитесь с нами, и мы незамедлительно удалим ее. Файлы для обмена на трекере предоставлены пользователями сайта, и администрация не несет ответственности за их содержание. Просьба не заливать файлы, защищенные авторскими правами, а также файлы нелегального содержания!