Ивановский Торрент трекер
Яндекс.Погода
 

[Цитировать]
HUNTER

Своими глазами. Воронки на Ямале
Год выпуска: 2014
Страна: Россия
Жанр: Документальный, расследование
Продолжительность: 00:25:31
Перевод: Не требуется
Режиссер: Людмила Снигирева
Описание: Этим летом на полуострове Ямал нашли четыре кратера. Об их происхождении не знал никто. Ученые по всему миру высказывали разные версии: метеорит, карстовый провал, извержение вулкана... Одновременно с обнаружением кратеров на Ямале по всей России начали происходить аномальные ураганы. В центре страны рекордно обмелела Волга. Связаны ли климатические аномалии с появлением кратеров на Севере? Будут ли подобные воронки появляться дальше, и чем они грозят людям? Вместе с группой ученых Первый канал отправился в первую масштабную экспедицию к крупнейшей воронке на Ямале. Впервые ученые детально исследуют загадочный кратер и дадут ответ на вопрос, какие новые аномалии приготовила нам Природа.
Качество: HDTVRip
Формат: AVI
Видео кодек: XviD
Аудио кодек: AC3
Видео: 720x400 (1.80:1), 25 fps, XviD build 73 ~1800 kbps avg, 0.25 bit/pixel
Аудио: 48 kHz, AC3 Dolby Digital, 2/0 (L,R) ch, ~192 kbps
Рип: olegka7373
Оформление:
Раздача группы:

MI

ОбщееПолное имя : F:\Svoimi.Glazami.Voronki.na.Jamale.HDTVRip.MediaClub.aviФормат : AVIФормат/Информация : Audio Video InterleaveРазмер файла : 366 МбайтПродолжительность : 25 м.Общий поток : 2003 Кбит/секПрограмма кодирования : VirtualDubMod 1.5.10.3 | www.virtualdub-fr.org || (build 2550/release)Библиотека кодирования : VirtualDubMod build 2550/release
ВидеоИдентификатор : 0Формат : MPEG-4 VisualПрофиль формата : Advanced Simple@L5Параметр BVOP формата : 1Параметр QPel формата : НетПараметр GMC формата : Без точки переходаПараметр матрицы формата : ВыборочнаяИдентификатор кодека : XVIDИдентификатор кодека/Подсказка : XviDПродолжительность : 25 м.Битрейт : 1801 Кбит/секШирина : 720 пикс.Высота : 400 пикс.Соотношение сторон : 16:9Частота кадров : 25,000 кадр/секЦветовое пространство : YUVПодвыборка цветности : 4:2:0Битовая глубина : 8 битТип развёртки : ПрогрессивнаяМетод сжатия : С потерямиБит/(Пиксели*Кадры) : 0.250Размер потока : 330 Мбайт (90%)Библиотека кодирования : XviD 73
АудиоИдентификатор : 1Формат : AC-3Формат/Информация : Audio Coding 3Расширение режима : CM (complete main)Идентификатор кодека : 2000Продолжительность : 25 м.Вид битрейта : ПостоянныйБитрейт : 192 Кбит/секКаналы : 2 каналаРасположение каналов : Front: L RЧастота : 48,0 КГцБитовая глубина : 16 битМетод сжатия : С потерямиРазмер потока : 35,1 Мбайт (10%)Выравнивание : Разделение по промежуткамПродолжительность промежутка : 40 мс. (1,00 видеокадр)Время предзагрузки промежутка : 500 ms

Скриншоты

Показать сообщения:    

Текущее время: 20-Окт 18:59

Часовой пояс: UTC - 1


Вы не можете начинать темы
Вы не можете отвечать на сообщения
Вы не можете редактировать свои сообщения
Вы не можете удалять свои сообщения
Вы не можете голосовать в опросах
Вы не можете прикреплять файлы к сообщениям
Вы не можете скачивать файлы

!ВНИМАНИЕ!
Сайт не предоставляет электронные версии произведений, а занимается лишь коллекционированием и каталогизацией ссылок, присылаемых и публикуемых на форуме нашими читателями. Если вы являетесь правообладателем какого-либо представленного материала и не желаете, чтобы ссылка на него находилась в нашем каталоге, свяжитесь с нами, и мы незамедлительно удалим ее. Файлы для обмена на трекере предоставлены пользователями сайта, и администрация не несет ответственности за их содержание. Просьба не заливать файлы, защищенные авторскими правами, а также файлы нелегального содержания!