Ивановский Торрент трекер
Яндекс.Погода
 

[Цитировать]
HUNTER

Свидетель обвинения / Witness for the Prosecution
Страна: США
Студия: Edward Small Productions
Жанр: детектив, драма
Год выпуска: 1957
Продолжительность: 01:56:32
Перевод: Профессиональный (многоголосый закадровый) Film-Prestige
Перевод 2: Одноголосый закадровый
Cубтитры: русские, английские
Оригинальная аудиодорожка: английский
Режиссер: Билли Уайлдер / Billy Wilder
В ролях: Тайрон Пауэр, Марлен Дитрих, Чарльз Лотон, Эльза Ланчестер, Джон Уильямс, Генри Дэниелл, Йен Вульф, Торин Тэтчер, Норма Варден, Уна О’Коннор
Описание: «Свидетель обвинения» - детективная драма по пьесе Агаты Кристи.
Блестящему адвокату Уилфриду Робартсу врачи запретили вести уголовные дела в связи с его болезнью, однако Робартса увлекает сложное дело Леонарда Воула. Этот человек - единственный подозреваемый в убийстве Эмили Френч, пожилой, одинокой и состоятельной дамы. По ее завещанию, все наследство должно достаться Леонарду, так как он был ее хорошим другом. Дело практически безнадежно, поскольку завещание - еще один мотив для убийства. И все же сэр Уилфрид, вопреки советам врачей, начинает работать.

Sample
Тип релиза: BDRip 720p - Don
Контейнер: MKV
Видео: MPEG4 AVC Video, H264, 1196x720, 23,976 fps, 8 736 Кbps
Аудио: Russian (AC3, 2 ch, 192 kbps, 16 bits, 48.0 KHz) - MVO
Аудио 2: Russian (AC3, 2 ch, 192 kbps, 16 bits, 48.0 KHz) - VO
Аудио 3: English (FLAC, 2 ch, 347 kbps, 16 bits, 48.0 KHz) - оригинал
Формат субтитров: softsub (SRT)

MediaInfo

General
Unique ID : 252584836884811038751279278757070842859 (0xBE0611F11EF092D6B787319B09A12BEB)
Complete name : E:\1\свидетель 720\Witness for the Prosecution 1957 BDRip 720p.mkv
Format : Matroska
Format version : Version 4 / Version 2
File size : 7.85 GiB
Duration : 1h 56mn
Overall bit rate mode : Variable
Overall bit rate : 9 643 Kbps
Encoded date : UTC 2014-07-17 08:18:47
Writing application : mkvmerge v6.1.0 ('Old Devil') built on Mar 2 2013 14:32:37
Writing library : libebml v1.3.0 + libmatroska v1.4.0
Video
ID : 1
Format : AVC
Format/Info : Advanced Video Codec
Format profile : High@L4.1
Format settings, CABAC : Yes
Format settings, ReFrames : 9 frames
Codec ID : V_MPEG4/ISO/AVC
Duration : 1h 56mn
Width : 1 196 pixels
Height : 720 pixels
Display aspect ratio : 1.661
Frame rate mode : Constant
Frame rate : 23.976 fps
Color space : YUV
Chroma subsampling : 4:2:0
Bit depth : 8 bits
Scan type : Progressive
Writing library : x264 core 142 r2409+42 04be48a tMod [8-bit@all X86_64]
Encoding settings : cabac=1 / ref=9 / deblock=1:-3:-3 / analyse=0x3:0x133 / me=esa / subme=10 / psy=1 / fade_compensate=0.00 / psy_rd=1.05:0.00 / mixed_ref=1 / me_range=32 / chroma_me=1 / trellis=2 / 8x8dct=1 / cqm=0 / deadzone=21,11 / fast_pskip=0 / chroma_qp_offset=-2 / threads=12 / lookahead_threads=3 / sliced_threads=0 / nr=0 / decimate=1 / interlaced=0 / bluray_compat=0 / constrained_intra=0 / fgo=0 / bframes=11 / b_pyramid=2 / b_adapt=2 / b_bias=0 / direct=3 / weightb=1 / open_gop=0 / weightp=2 / keyint=241 / keyint_min=23 / scenecut=40 / intra_refresh=0 / rc_lookahead=60 / rc=crf / mbtree=0 / crf=17.6000 / qcomp=0.70 / qpmin=0:0:0 / qpmax=69:69:69 / qpstep=4 / vbv_maxrate=50000 / vbv_bufsize=62500 / crf_max=0.0 / nal_hrd=none / filler=0 / ip_ratio=1.30 / pb_ratio=1.20 / aq=4:0.80 / aq-sensitivity=10.00 / aq-factor=1.00:1.00:1.00 / aq2=0 / aq3=0
Language : English
Default : Yes
Forced : No
Audio #1
ID : 2
Format : AC-3
Format/Info : Audio Coding 3
Mode extension : CM (complete main)
Format settings, Endianness : Big
Codec ID : A_AC3
Duration : 1h 56mn
Bit rate mode : Constant
Bit rate : 192 Kbps
Channel count : 2 channels
Channel positions : Front: L R
Sampling rate : 48.0 KHz
Bit depth : 16 bits
Compression mode : Lossy
Stream size : 160 MiB (2%)
Title : MVO
Language : Russian
Default : Yes
Forced : No
Audio #2
ID : 3
Format : AC-3
Format/Info : Audio Coding 3
Mode extension : CM (complete main)
Format settings, Endianness : Big
Codec ID : A_AC3
Duration : 1h 56mn
Bit rate mode : Constant
Bit rate : 192 Kbps
Channel count : 2 channels
Channel positions : Front: L R
Sampling rate : 48.0 KHz
Bit depth : 16 bits
Compression mode : Lossy
Stream size : 160 MiB (2%)
Title : VO
Language : Russian
Default : No
Forced : No
Audio #3
ID : 4
Format : FLAC
Format/Info : Free Lossless Audio Codec
Codec ID : A_FLAC
Duration : 1h 56mn
Bit rate mode : Variable
Channel count : 2 channels
Sampling rate : 48.0 KHz
Bit depth : 16 bits
Writing library : libFLAC 20080709 (UTC 2008-07-09)
Language : English
Default : No
Forced : No
Text #1
ID : 5
Format : UTF-8
Codec ID : S_TEXT/UTF8
Codec ID/Info : UTF-8 Plain Text
Language : Russian
Default : No
Forced : No
Text #2
ID : 6
Format : UTF-8
Codec ID : S_TEXT/UTF8
Codec ID/Info : UTF-8 Plain Text
Language : English
Default : No
Forced : No
Menu
00:00:00.000 : :00:00:00.000
00:22:58.294 : :00:22:58.294
00:38:57.710 : :00:38:57.710
00:50:42.289 : :00:50:42.289
01:11:25.072 : :01:11:25.072
01:28:24.382 : :01:28:24.382
01:35:55.208 : :01:35:55.208
01:47:19.808 : :01:47:19.808
Source vs Encode
Source | Encode

Скриншоты


Показать сообщения:    

Текущее время: 14-Дек 19:10

Часовой пояс: UTC ± 0


Вы не можете начинать темы
Вы не можете отвечать на сообщения
Вы не можете редактировать свои сообщения
Вы не можете удалять свои сообщения
Вы не можете голосовать в опросах
Вы не можете прикреплять файлы к сообщениям
Вы не можете скачивать файлы

!ВНИМАНИЕ!
Сайт не предоставляет электронные версии произведений, а занимается лишь коллекционированием и каталогизацией ссылок, присылаемых и публикуемых на форуме нашими читателями. Если вы являетесь правообладателем какого-либо представленного материала и не желаете, чтобы ссылка на него находилась в нашем каталоге, свяжитесь с нами, и мы незамедлительно удалим ее. Файлы для обмена на трекере предоставлены пользователями сайта, и администрация не несет ответственности за их содержание. Просьба не заливать файлы, защищенные авторскими правами, а также файлы нелегального содержания!