Важное объявление!
У Нас Все раздачи мультитрекерные, при нуле пиров в релизах, можете смело вставать на закачку!
Статистика раздачи
Размер:     |    Зарегистрирован:     |    Скачан:     |   
Нет
 
     
 
 
Автор Сообщение

HUNTER

Стаж:
5 лет
Сообщений:
68415

Репутация: 101

[+] [-]
Вне форума [Профиль] [ЛС]

Свидетель века -"7 декабря 1988 года"
Дата/Год выпуска: 2000
Страна: Россия
Жанр: Документальный фильм
Продолжительность: 00:14:33
Перевод: Не требуется
Русские субтитры: нет
Режиссер: Алексей Шлянин
Телеканал: Ретро
Описание:
7 декабря 1988 года в Армении произошло одно из страшнейших в истории человечества землетрясений. За несколько минут был уничтожен город Спитак, погибли тысячи людей. Ликвидировали последствия землетрясения спасатели со всего мира. Советскими спасателями командовал Николай Тараканов.
Сэмпл:https://www.sendspace.com/file/t2587k
качество: DVB
формат: MPG
Видео: MPEG2, 720x576 (4:3), 2811 Кбит/сек, 25,000 кадров/сек ,(0.271 bit/pixel)
Аудио: MP2, 192 Кбит/сек, 48,0 КГц, 2 канала

MediaInfo

ОбщееПолное имя : 7 декабря 1988 года.mpgФормат : MPEG-PSРазмер файла : 319 МбайтПродолжительность : 14 м.Режим общего битрейта : ПеременныйОбщий поток : 3064 Кбит/сек
ВидеоИдентификатор : 224 (0xE0)Формат : MPEG VideoВерсия формата : Version 2Профиль формата : Main@MainПараметр BVOP формата : ДаПараметр матрицы формата : ВыборочнаяПараметр GOP формата : M=3, N=12Структура изображения : FrameПродолжительность : 14 м.Вид битрейта : ПеременныйБитрейт : 2811 Кбит/секМаксимальный битрейт : 10000 Кбит/секШирина : 720 пикселейВысота : 576 пикселейСоотношение сторон : 4:3Частота кадров : 25,000 кадров/секСтандарт вещания : PALЦветовое пространство : YUVСубдискретизация насыщенности : 4:2:0Битовая глубина : 8 битТип развёртки : ЧересстрочнаяПорядок развёртки : Верхнее поле первоеМетод сжатия : С потерямиБит/(Пиксели*Кадры) : 0.271Временной код первого кадра : 00:00:00:00Оригинал временного кода : Group of pictures headerGOP, открыто/закрыто : ОткрытоGOP, открыто/закрыто на первом кадре : ЗакрытоРазмер потока : 293 Мбайт (92%)
АудиоИдентификатор : 192 (0xC0)Формат : MPEG AudioВерсия формата : Version 1Профиль формата : Layer 2Продолжительность : 14 м.Вид битрейта : ПостоянныйБитрейт : 192 Кбит/секКаналы : 2 каналаЧастота : 48,0 КГцМетод сжатия : С потерямиЗадержка видео : 11 мс.Размер потока : 20,0 Мбайт (6%)

Скриншоты

Запись потока *.ts произведена тюнером цифрового телевидения. В связи с тем, что не все плееры воспроизводят поток *.ts (MPEG-TS) , в данном видеофайле мной был сделан ремукс потока *.ts (MPEG-TS) в *.mpg (MPEG-PS) программой VideoReDo.

_________________
Показать сообщения:    

Текущее время: Сегодня 03:17

Часовой пояс: GMT



Вы не можете начинать темы
Вы не можете отвечать на сообщения
Вы не можете редактировать свои сообщения
Вы не можете удалять свои сообщения
Вы не можете голосовать в опросах
Вы не можете прикреплять файлы к сообщениям
Вы не можете скачивать файлы