Важное объявление!
У Нас Все раздачи мультитрекерные, при нуле пиров в релизах, можете смело вставать на закачку!
 
Автор Сообщение

HUNTER

Стаж:
4 года 8 месяцев
Сообщений:
62102

Репутация: 101

[+] [-]
Вне форума [Профиль] [ЛС]

Свершившийся Факт / Рассвет Вуду / Украденное проклятье / Проклятые деньги / Fait Accompli / VooDoo Dawn
Страна: США
Студия: Bridge Pictures / Cutting Edge Entertainment
Жанр: триллер
Год выпуска: 1998
Продолжительность: 01:29:44
Перевод: Профессиональный (двухголосый закадровый) НТВ
Перевод 2: Авторский (одноголосый закадровый) Сербин
Cубтитры: нет
Оригинальная аудиодорожка: английский
Режиссер: Анджей Секула / Andrzej Sekula
В ролях: Майкл Мэдсен, Розанна Аркет, Бальтазар Гетти, Филлип Глассер, Джеймс Руссо
Описание: Второразрядный воришка крадет большие деньги. К его несчастью, он даже не подозревает, что эти деньги принадлежат жрице вуду, которая наложила на них заклятье. Деньги вскоре оказываются в руках Фрэнка Барлоу, криминального босса и ярого адепта религии вуду. С ужасом узнав, каким «богатством» он завладел, Фрэнк решает при первой же возможности вернуть украденное. Но у его любовницы Джезебел дркгие планы на будущее. Всю жизнь ожидавшая подобной возможности, красотка с улыбкой покидает город, захвативс собой туго набитую деньгами сумку. Скрываясь от погони, она прячется в пустующем доме, куда скоро должны вернуться владельцы.
Доп. информация: Русские звуковые дорожки взяты с этих раздач [url=viewtopic.php?t=5151063]http://rutracker.org/forum/viewtopic.php?t=5151063[/url] [url=viewtopic.php?t=3518446]http://rutracker.org/forum/viewtopic.php?t=3518446[/url] авторам большое спасибо.
За синхронизацию огромное спасибо *Sergeant_am*
При пересборе двд были использованы программы:
BeSweet в связке с BeLight – распаковка звука в формат WAV
Sony Vegas – кодирование в AC3
PgcDemux - разделение компонентов диска на файлы
Muxman - мультиплексирование и авторинг DVD
VobBlanker - реавторинг DVD

AC3->WAV

Сони вегас

Скрин завершения проекта

Бонусы: Трейлеры.
Сэмпл: http://sendfile.su/1213726
Тип релиза: DVD5 (Custom)
Контейнер: DVD-Video
Видео: PAL 16:9 (720x576) VBR Auto Letterboxed
Аудио: Russian (Dolby AC3, 192 Кбит/сек, 2 ch)
Аудио 2: Russian (Dolby AC3, 192 Кбит/сек, 2 ch)
Аудио 3: Deutsch (Dolby AC3, 384 Кбит/сек, 6 ch)
Аудио 4: English (Dolby AC3, 192 Кбит/сек, 2 ch)

DVDInfo

Size: 4.20 Gb ( 4 403 150 KBytes ) - DVD-5
Enabled regions: 1, 2, 3, 4, 5, 6, 7, 8
VTS_01 :
Play Length: 01:29:44
Video: PAL 16:9 (720x576) VBR, Auto Letterboxed
Audio:
Russian (Dolby AC3, 2 ch)
Russian (Dolby AC3, 2 ch)
Deutsch (Dolby AC3, 6 ch)
English (Dolby AC3, 2 ch)
VTS_02 :
Play Length: 00:01:58+00:01:23+00:01:36+00:02:25+00:02:21+00:01:47
Video: PAL 4:3 (720x576) VBR
Audio:
Deutsch (Dolby AC3, 2 ch)
VTS_03 :
Play Length: 00:02:27+00:02:11
Video: PAL 16:9 (720x576) VBR, Auto Letterboxed
Audio:
Deutsch (Dolby AC3, 2 ch)
VTS_04 :
Play Length: 00:00:07
Video: PAL 4:3 (720x576) VBR
Menu Video:
PAL 4:3 (720x576) VBR
Menu Subtitles:
Not specified
Menu Language Unit :
Root Menu
Audio Menu
Chapter (PTT) Menu

MediaInfo

Общее
Полное имя : D:\DVD ГОТОВЫЕ\Fait Accompli_1998\VIDEO_TS\VTS_01_1.VOB
Формат : MPEG-PS
Размер файла : 1024 Мбайт
Продолжительность : 25 м.
Режим общего битрейта : Переменный
Общий поток : 5527 Кбит/сек
Видео
Идентификатор : 224 (0xE0)
Формат : MPEG Video
Версия формата : Version 2
Профиль формата : Main@Main
Параметр BVOP формата : Да
Параметр матрицы формата : Выборочная
Параметр GOP формата : M=3, N=15
Продолжительность : 25 м.
Вид битрейта : Переменный
Битрейт : 4457 Кбит/сек
Максимальный битрейт : 7500 Кбит/сек
Ширина : 720 пикселей
Высота : 576 пикселей
Соотношение сторон : 16:9
Частота кадров : 25,000 кадров/сек
Стандарт вещания : PAL
Цветовое пространство : YUV
Субдискретизация насыщенности : 4:2:0
Битовая глубина : 8 бит
Тип развёртки : Прогрессивная
Порядок развёртки : Верхнее поле первое
Метод сжатия : С потерями
Бит/(Пиксели*Кадры) : 0.430
Временной код первого кадра : 09:59:59:00
Оригинал временного кода : Group of pictures header
Размер потока : 826 Мбайт (81%)
Аудио #1
Идентификатор : 189 (0xBD)-128 (0x80)
Формат : AC-3
Формат/Информация : Audio Coding 3
Расширение режима : CM (complete main)
Параметр Endianness формата : Big
Режим смешивания : DVD-Video
Продолжительность : 25 м.
Вид битрейта : Постоянный
Битрейт : 192 Кбит/сек
Каналы : 2 канала
Расположение каналов : Front: L R
Частота : 48,0 КГц
Битовая глубина : 16 бит
Метод сжатия : С потерями
Задержка видео : -80 мс.
Размер потока : 35,6 Мбайт (3%)
Аудио #2
Идентификатор : 189 (0xBD)-129 (0x81)
Формат : AC-3
Формат/Информация : Audio Coding 3
Расширение режима : CM (complete main)
Параметр Endianness формата : Big
Режим смешивания : DVD-Video
Продолжительность : 25 м.
Вид битрейта : Постоянный
Битрейт : 192 Кбит/сек
Каналы : 2 канала
Расположение каналов : Front: L R
Частота : 48,0 КГц
Битовая глубина : 16 бит
Метод сжатия : С потерями
Задержка видео : -80 мс.
Размер потока : 35,6 Мбайт (3%)
Аудио #3
Идентификатор : 189 (0xBD)-130 (0x82)
Формат : AC-3
Формат/Информация : Audio Coding 3
Расширение режима : CM (complete main)
Параметр Endianness формата : Big
Режим смешивания : DVD-Video
Продолжительность : 25 м.
Вид битрейта : Постоянный
Битрейт : 384 Кбит/сек
Каналы : 6 каналов
Расположение каналов : Front: L C R, Side: L R, LFE
Частота : 48,0 КГц
Битовая глубина : 16 бит
Метод сжатия : С потерями
Задержка видео : -80 мс.
Размер потока : 71,1 Мбайт (7%)
Аудио #4
Идентификатор : 189 (0xBD)-131 (0x83)
Формат : AC-3
Формат/Информация : Audio Coding 3
Расширение режима : CM (complete main)
Параметр Endianness формата : Big
Режим смешивания : DVD-Video
Продолжительность : 25 м.
Вид битрейта : Постоянный
Битрейт : 192 Кбит/сек
Каналы : 2 канала
Расположение каналов : Front: L R
Частота : 48,0 КГц
Битовая глубина : 16 бит
Метод сжатия : С потерями
Задержка видео : -80 мс.
Размер потока : 35,6 Мбайт (3%)
Меню

Постеры

Скриншоты меню

Скриншоты


_________________
Показать сообщения:    

Текущее время: Сегодня 09:57

Часовой пояс: GMT



Вы не можете начинать темы
Вы не можете отвечать на сообщения
Вы не можете редактировать свои сообщения
Вы не можете удалять свои сообщения
Вы не можете голосовать в опросах
Вы не можете прикреплять файлы к сообщениям
Вы не можете скачивать файлы
Наши партнеры: интернет магазин Ивановского трикотажа textilla.ru