Важное объявление!
У Нас Все раздачи мультитрекерные, при нуле пиров в релизах, можете смело вставать на закачку!
Статистика раздачи
Размер:     |    Зарегистрирован:     |    Скачан:     |   
Нет
 
     
 
 
Автор Сообщение

HUNTER

Стаж:
5 лет 1 месяц
Сообщений:
68439

Репутация: 101

[+] [-]
Вне форума [Профиль] [ЛС]

--Сверхъестественные силы и явления: Чудеса веры
Supernatural science: Miracles of Faith
--
Страна: Великобритания
Производство: BBC
Год выпуска: 1999
Жанр: Документальный
Продолжительность: 00:51:14
Перевод: Профессиональный (двухголосый закадровый)
Русские субтитры: нет--Режиссер: Хелен Томас / Helen Thomas--Описание:
В новой серии фильмов "Сверхъестественные силы и явления" зритель узнает много нового о религиозных мистификациях: плачущих статуях, туринской плащанице и мн. др., и их разоблачении.
Рассказывает Джонатан Прайс.--Ссылка на предыдущие и альтернативные раздачи.--См. также:
Михаил Шахнович - Современная мистика в свете науки - 1965 г.
Григорий Габинский - В поисках чуда - 1979 г.
Лев Тарасов - Чудо в зеркале разума - 1989 г.
Дайана Халперн - Психология критического мышления - 2000 г.
Джонатан Смит - Псевдонаука и паранормальные явления: Критический взгляд - 2011 г.
Пенн и Теллер: Херня! / Penn&Teller: Bullshit! - США, (научно-популярная передача) - 2003-2010 г.--Сэмпл: http://multi-up.com/958828
Качество: DVDRip
Формат: AVI
Видео-кодек: XviD
Аудио-кодек: AC3
Видео: 640x480 (1.33:1), 25 fps, XviD build 47 ~1007 kbps avg, 0.13 bit/pixel
Аудио: 48 kHz, AC3 Dolby Digital, 2/0 (L,R) ch, ~192.00 kbps

MedioInfo

Общее
Формат : AVI
Формат/Информация : Audio Video Interleave
Размер файла : 443 Мбайт
Продолжительность : 51 м.
Общий поток : 1209 Кбит/сек
Библиотека кодирования : VirtualDub build 32661/release
Видео
Идентификатор : 0
Формат : MPEG-4 Visual
Профиль формата : Advanced Simple@L5
Параметр BVOP формата : 1
Параметр QPel формата : Нет
Параметр GMC формата : Без точки перехода
Параметр матрицы формата : Default (MPEG)
Идентификатор кодека : XVID
Идентификатор кодека/Подсказка : XviD
Продолжительность : 51 м.
Битрейт : 1008 Кбит/сек
Ширина : 640 пикселей
Высота : 480 пикселей
Соотношение сторон : 4:3
Частота кадров : 25,000 кадров/сек
Цветовое пространство : YUV
Субдискретизация насыщенности : 4:2:0
Битовая глубина : 8 бит
Тип развёртки : Прогрессивная
Метод сжатия : С потерями
Бит/(Пиксели*Кадры) : 0.131
Размер потока : 369 Мбайт (83%)
Библиотека кодирования : XviD 1.2.0.dev47 (UTC 2006-11-01)
Аудио
Идентификатор : 1
Формат : AC-3
Формат/Информация : Audio Coding 3
Расширение режима : CM (complete main)
Параметр Endianness формата : Big
Идентификатор кодека : 2000
Продолжительность : 51 м.
Вид битрейта : Постоянный
Битрейт : 192 Кбит/сек
Каналы : 2 канала
Расположение каналов : Front: L R
Частота : 48,0 КГц
Битовая глубина : 16 бит
Метод сжатия : С потерями
Размер потока : 70,4 Мбайт (16%)
Выравнивание : Соединение по промежуткам
Продолжительность промежутка : 40 мс. (1,00 видеокадр)
Время предзагрузки промежутка : 512 мс.

Cкриншоты


_________________
Показать сообщения:    

Текущее время: Сегодня 10:02

Часовой пояс: GMT



Вы не можете начинать темы
Вы не можете отвечать на сообщения
Вы не можете редактировать свои сообщения
Вы не можете удалять свои сообщения
Вы не можете голосовать в опросах
Вы не можете прикреплять файлы к сообщениям
Вы не можете скачивать файлы