Важное объявление!
У Нас Все раздачи мультитрекерные, при нуле пиров в релизах, можете смело вставать на закачку!
Статистика раздачи
Размер:     |    Зарегистрирован:     |    Скачан:     |   
Нет
 
     
 
 
Автор Сообщение

HUNTER

Стаж:
5 лет
Сообщений:
68053

Репутация: 101

[+] [-]
Вне форума [Профиль] [ЛС]

Сверхъестественное / Supernatural-Сверхъестественное / Supernatural [Season 4]«Scary Just Got Sexy»-
Год выпуска: 2008
Страна: США | Warner Bros. Television
Жанр: мистика, триллер, ужасы
Продолжительность: ~00:48 x22 | 22 x2,20 Гб
  • Профессиональный (полное дублирование) - Ren-Tv
  • Профессиональный (многоголосый, закадровый) - NovaFilm
Оригинальная дорожка: Английская
Субтитры: русские, английские-Автор идеи: Эрик Крипке
В ролях: Джаред Падалеки, Дженсен Эклз, Джеффри Дин Морган, Джим Бивер и др-Описание: Сериал рассказывает о приключениях братьев Сэма и Дина Винчестеров, которые путешествуют по Соединённым Штатам на чёрном автомобиле Chevrolet Impala 1967 года, расследуют паранормальные явления, многие из которых основаны на американских городских легендах и фольклоре, и сражаются с порождениями зла, такими как демоны и призраки.-Рип MMI
За дубляж спасибо Alexander_Kozlov
За субтитры и озвучку NovaFilm (кроме 17 серии) спасибо JigSaW_3-Качество: BDRip [720p]
Формат: MKV
Видео кодек: H.264
Аудио кодек: AC3
Видео: 1280x720, 23.976 fps, ~6Mbps, 0.297 bit/pixel
Аудио #1: AC3 2.0, 48 KHz, 192 kbps |Ren-Tv|
Аудио #2: AC3 5.1, 48 KHz, 384 kbps |NovaFilm| (1,6,12 серии AC3 2.0, 48 KHz, 384 kbps)
Аудио #2: AC3 5.1, 48 KHz, 640 kbps |Оригинальная дорожка|-

Список серий

1. Lazarus Rising
2. Are You There, God? It's Me... Dean Winchester
3. In The Beginning
4. Metamorphosis
5. Monster Movie
6. Yellow Fever
7. It's the Great Pumpkin, Sam Winchester
8. Wishful Thinking
9. I Know What You Did Last Summer
10. Heaven and Hell
11. Family Remains
12. Criss Angel Is a Douche Bag
13. After School Special
14. Sex and Violence
15. Death Takes a Holiday
16. On the Head of a Pin
17. It's a Terrible Life
18. The Monster at the End of This Book
19. Jump the Shark
20. The Rapture
21. When the Levee Breaks
22. Lucifer Rising

MI

Код: copyText_writeLink('this.parentNode.parentNode.nextSibling.nextSibling');
Format : Matroska
File size : 2.31 GiB
Duration : 41mn 13s
Overall bit rate : 8 036 Kbps
Movie name : Release by uxTuaHgp
Encoded date : UTC 2011-04-11 09:48:04
Writing application : mkvmerge v2.5.3 ('Boogie') built on Mar 7 2009 15:00:41
Writing library : libebml v0.7.7 + libmatroska v0.8.1
Video
ID : 1
Format : AVC
Format/Info : Advanced Video Codec
Format profile : [url=mailto:High@L3.1]High@L3.1[/url]
Format settings, CABAC : Yes
Format settings, ReFrames : 5 frames
Codec ID : V_MPEG4/ISO/AVC
Duration : 41mn 13s
Bit rate : 6 817 Kbps
Width : 1 280 pixels
Height : 720 pixels
Display aspect ratio : 16:9
Frame rate : 23.976 fps
Color space : YUV
Chroma subsampling : 4:2:0
Bit depth : 8 bits
Scan type : Progressive
Bits/(Pixel*Frame) : 0.309
Stream size : 1.92 GiB (83%)
Title : Supernatural S04 E02 - Are You There God? It's Me, Dean Winchester - Release by uxTuaHgp
Writing library : x264 core 68 r1184M 88b35c2
Encoding settings : cabac=1 / ref=5 / deblock=1:-2:-2 / analyse=0x3:0x133 / me=umh / subme=9 / psy_rd=1.0:0.0 / mixed_ref=1 / me_range=24 / chroma_me=1 / trellis=2 / 8x8dct=1 / cqm=0 / deadzone=21,11 / chroma_qp_offset=-2 / threads=6 / nr=0 / decimate=0 / mbaff=0 / bframes=6 / b_pyramid=1 / b_adapt=2 / b_bias=0 / direct=3 / wpredb=1 / keyint=250 / keyint_min=25 / scenecut=40 / rc=2pass / bitrate=6817 / ratetol=2.0 / qcomp=0.60 / qpmin=10 / qpmax=51 / qpstep=4 / cplxblur=20.0 / qblur=0.5 / ip_ratio=1.40 / pb_ratio=1.30 / aq=1:1.00
Language : English
Audio #1
ID : 2
Format : AC-3
Format/Info : Audio Coding 3
Mode extension : CM (complete main)
Codec ID : A_AC3
Duration : 41mn 13s
Bit rate mode : Constant
Bit rate : 192 Kbps
Channel(s) : 2 channels
Channel positions : Front: L R
Sampling rate : 48.0 KHz
Bit depth : 16 bits
Compression mode : Lossy
Stream size : 56.6 MiB (2%)
Title : AC3 2.0 @ 192 kbps [Ren-Tv]
Language : Russian
Audio #2
ID : 3
Format : AC-3
Format/Info : Audio Coding 3
Mode extension : CM (complete main)
Codec ID : A_AC3
Duration : 41mn 13s
Bit rate mode : Constant
Bit rate : 384 Kbps
Channel(s) : 6 channels
Channel positions : Front: L C R, Side: L R, LFE
Sampling rate : 48.0 KHz
Bit depth : 16 bits
Compression mode : Lossy
Stream size : 113 MiB (5%)
Title : AC3 5.1 @ 384 kbps [NovaFilm]
Language : Russian
Audio #3
ID : 4
Format : AC-3
Format/Info : Audio Coding 3
Mode extension : CM (complete main)
Codec ID : A_AC3
Duration : 41mn 13s
Bit rate mode : Constant
Bit rate : 640 Kbps
Channel(s) : 6 channels
Channel positions : Front: L C R, Side: L R, LFE
Sampling rate : 48.0 KHz
Bit depth : 16 bits
Compression mode : Lossy
Stream size : 189 MiB (8%)
Title : AC3 5.1 @ 640 kbps
Language : English
Text #1
ID : 5
Format : UTF-8
Codec ID : S_TEXT/UTF8
Codec ID/Info : UTF-8 Plain Text
Language : English
Text #2
ID : 6
Format : UTF-8
Codec ID : S_TEXT/UTF8
Codec ID/Info : UTF-8 Plain Text
Language : Russian
-

Скриншоты


_________________
Показать сообщения:    

Текущее время: Сегодня 02:55

Часовой пояс: GMT



Вы не можете начинать темы
Вы не можете отвечать на сообщения
Вы не можете редактировать свои сообщения
Вы не можете удалять свои сообщения
Вы не можете голосовать в опросах
Вы не можете прикреплять файлы к сообщениям
Вы не можете скачивать файлы