Важное объявление!
У Нас Все раздачи мультитрекерные, при нуле пиров в релизах, можете смело вставать на закачку!
 
Автор Сообщение

HUNTER

Стаж:
4 года 6 месяцев
Сообщений:
60975

Репутация: 101

[+] [-]
Вне форума [Профиль] [ЛС]

Сверхновый Супермен
All-Star Superman
Год выпуска: 2011
Страна: США
Жанр: мультфильм, фантастика, фэнтези, боевик, приключения
Продолжительность: 01:16:36
Перевод:
Любительский (Многоголосый закадровый) - Kapets's Studios
Любительский (Двухголосый закадровый)
русские субтитры: есть-Режиссёр: Сэм Лью : Sam Liu-Роли озвучивали: Джеймс Дентон, Кристина Хендрикс, Энтони ЛаПалья, Эдвард Эснер, Обба Бабатунде, Стивен Блум, Линда Карделлини, Кэти Кавадини, Фрэнсис Конрой, Крис Кокс-Описание: Лекс Лютор приговорен к казни. Но злодей успел взломать генетический код Супермена и подвергнуть Человека из Стали смертельной дозой солнечной радиации. Супермен обречен. В оставшиеся дни он решает открыть Лоис Лейн свое истинное лицо и противостоять последним козням астрономического масштаба. Погибнет ли Супермен или возродится подобно сверхновой звезде?- релиз: -Качество: BDRemux 1080p
Формат: MKV
Видео кодек: AVC
Аудио кодек: AC3 : DTS MA
Видео: 1980x1080 , 23,976 fps, ~18,0 Мbps avg, 0.584 bit/pixel
Аудио #1: [RUS] 48 kHz, AC3 Dolby Digital, 3/2 (L,C,R,l,r) + LFE ch, ~448 kbps - MVO
Аудио #2: [RUS] 48 kHz, AC3 Dolby Digital, 3/2 (L,C,R,l,r) + LFE ch, ~448 kbps - DVO
Аудио #3: [ENG] DTS-HD MA 5.1 / 48 kHz / 2221 kbps / 16-bit (DTS Core: 5.1 / 48 kHz / 1509 kbps / 16-bit)
субтитры: русские, английские (full, SDH)

MediaInfo

Общее
Уникальный идентификатор : 223406810581084840779406402585328776319 (0xA812962D3D93FBB4B1BEFB1E3C9E747F)
Полное имя : D:\Im\All Star Superman\All-Star Superman.2011.BDRemux 1080p.mkv
Формат : Matroska
Версия формата : Version 4 / Version 2
Размер файла : 10,2 Гбайт
Продолжительность : 1 ч. 16 м.
Режим общего битрейта : Переменный
Общий поток : 19,0 Мбит/сек
Название фильма : All-Star Superman.2011.BDRemux 1080p [-Azureus-]
Дата кодирования : UTC 2014-04-14 02:10:44
Программа кодирования : mkvmerge v6.8.0 ('Theme for Great Cities') 32bit built on Mar 2 2014 21:27:07
Библиотека кодирования : libebml v1.3.0 + libmatroska v1.4.1
Видео
Идентификатор : 1
Формат : AVC
Формат/Информация : Advanced Video Codec
Профиль формата : High@L4.0
Параметр CABAC формата : Да
Параметр ReFrames формата : 2 кадра
Параметр GOP формата : M=1, N=10
Идентификатор кодека : V_MPEG4/ISO/AVC
Продолжительность : 1 ч. 16 м.
Вид битрейта : Переменный
Ширина : 1920 пикселей
Высота : 1080 пикселей
Соотношение сторон : 16:9
Режим частоты кадров : Постоянный
Частота кадров : 23,976 кадра/сек
Цветовое пространство : YUV
Субдискретизация насыщенности : 4:2:0
Битовая глубина : 8 бит
Тип развёртки : Прогрессивная
Язык : English
Default : Да
Forced : Нет
Аудио #1
Идентификатор : 2
Формат : AC-3
Формат/Информация : Audio Coding 3
Расширение режима : CM (complete main)
Параметр Endianness формата : Big
Идентификатор кодека : A_AC3
Продолжительность : 1 ч. 16 м.
Вид битрейта : Постоянный
Битрейт : 448 Кбит/сек
Каналы : 6 каналов
Расположение каналов : Front: L C R, Side: L R, LFE
Частота : 48,0 КГц
Битовая глубина : 16 бит
Метод сжатия : С потерями
Размер потока : 245 Мбайт (2%)
Заголовок : MVO [Kapets's Studios]
Язык : Russian
Default : Да
Forced : Нет
Аудио #2
Идентификатор : 3
Формат : AC-3
Формат/Информация : Audio Coding 3
Расширение режима : CM (complete main)
Параметр Endianness формата : Big
Идентификатор кодека : A_AC3
Продолжительность : 1 ч. 16 м.
Вид битрейта : Постоянный
Битрейт : 448 Кбит/сек
Каналы : 6 каналов
Расположение каналов : Front: L C R, Side: L R, LFE
Частота : 48,0 КГц
Битовая глубина : 16 бит
Метод сжатия : С потерями
Размер потока : 245 Мбайт (2%)
Заголовок : DVO
Язык : Russian
Default : Нет
Forced : Нет
Аудио #3
Идентификатор : 4
Формат : DTS
Формат/Информация : Digital Theater Systems
Профиль формата : MA / Core
Режим : 16
Параметр Endianness формата : Big
Идентификатор кодека : A_DTS
Продолжительность : 1 ч. 16 м.
Вид битрейта : Переменный
Битрейт : Неизвестно / 1509 Кбит/сек
Каналы : 6 каналов
Расположение каналов : Front: L C R, Side: L R, LFE
Частота : 48,0 КГц
Битовая глубина : 16 бит
Метод сжатия : Без потерь / Lossy
Заголовок : ENG
Язык : English
Default : Нет
Forced : Нет
Текст #1
Идентификатор : 5
Формат : UTF-8
Идентификатор кодека : S_TEXT/UTF8
Идентификатор кодека/Информация : UTF-8 Plain Text
Заголовок : Rus Sub
Язык : Russian
Default : Да
Forced : Нет
Текст #2
Идентификатор : 6
Формат : UTF-8
Идентификатор кодека : S_TEXT/UTF8
Идентификатор кодека/Информация : UTF-8 Plain Text
Заголовок : Eng Sub
Язык : English
Default : Нет
Forced : Нет
____________________________________________
Стою на раздаче до 5 дней.
Просьба скачавшим как можно дольше не покидать раздачу!
ВСЕМ ПРИЯТНОГО ПРОСМОТРА!_________________________________________

_________________
Показать сообщения:    

Текущее время: Сегодня 17:31

Часовой пояс: GMT



Вы не можете начинать темы
Вы не можете отвечать на сообщения
Вы не можете редактировать свои сообщения
Вы не можете удалять свои сообщения
Вы не можете голосовать в опросах
Вы не можете прикреплять файлы к сообщениям
Вы не можете скачивать файлы
Наши партнеры: интернет магазин Ивановского трикотажа textilla.ru