Важное объявление!
У Нас Все раздачи мультитрекерные, при нуле пиров в релизах, можете смело вставать на закачку!
 
Автор Сообщение

HUNTER

Стаж:
4 года 7 месяцев
Сообщений:
61508

Репутация: 101

[+] [-]
Вне форума [Профиль] [ЛС]

Сверхмассивные чёрные дыры / Supermassive black holes
Дата/Год выпуска: 2000
Страна: Великобритания
Жанр: Научно-популярный
Продолжительность: 00:49:09
Перевод: Профессиональный (двухголосый закадровый)
Режиссер: Зои Херон / Zoe Heron
Русские субтитры: нет
Описание: Из всех гипотетических объектов Вселенной, предсказываемых научными теориями, черные дыры производят самое жуткое впечатление. Эти загадочные убийцы целых галактик способны поглотить огромное количество вещества, увеличиваясь в размерах. И, хотя предположения об их существовании начали высказываться более двухсот лет назад, убедительные свидетельства реальности их существования получены совсем недавно.
Важнейшее свойство черной дыры - что бы в нее ни попало, обратно оно не вернется. Это касается даже света, вот почему черные дыры и получили свое название. Европейские и американские ученые провели глобальный поиск сверхмассивных черных дыр, которые, согласно современным теоретическим выкладкам, должны находиться в центре каждой галактики. На сегодняшний день сверхмассивные черные дыры обнаружены уже в 45 галактиках. В центре нашего Млечного Пути так же располагается невероятно массивная черная дыра, которая в миллионы раз тяжелее Солнца.
Качество: DVDRip-AVC Сэмпл
Формат: MKV
Видео: H264, 720x544 (4:3), 25fps, 1 378 Kbps
Аудио: AC-3, 48.0 KHz, 2 ch, 192 Kbps - русский
Аудио 2: AC-3, 48.0 KHz, 2 ch, 192 Kbps - английский (отдельно)

MediaInfo

GeneralUnique ID : 229181791009967419051350556757748020989 (0xAC6ACEB1DC58D21FB0DB9C1652FAF6FD)Complete name : BBC Сверхмассивные чёрные дыры 2000.mkvFormat : MatroskaFormat version : Version 2File size : 553 MiBDuration : 49mn 9sOverall bit rate : 1 572 KbpsEncoded date : UTC 2015-02-22 21:25:38Writing application : mkvmerge v6.1.0 ('Old Devil') built on Mar 4 2013 09:10:42Writing library : libebml v1.3.0 + libmatroska v1.4.0
VideoID : 1Format : AVCFormat/Info : Advanced Video CodecFormat profile : High@L4.1Format settings, CABAC : YesFormat settings, ReFrames : 11 framesCodec ID : V_MPEG4/ISO/AVCDuration : 49mn 9sBit rate : 1 378 KbpsWidth : 720 pixelsHeight : 544 pixelsDisplay aspect ratio : 4:3Frame rate mode : ConstantFrame rate : 25.000 fpsColor space : YUVChroma subsampling : 4:2:0Bit depth : 8 bitsScan type : ProgressiveBits/(Pixel*Frame) : 0.141Stream size : 474 MiB (86%)Writing library : x264 core 130 r2273 b3065e6Encoding settings : cabac=1 / ref=11 / deblock=1:-2:-1 / analyse=0x3:0x113 / me=umh / subme=11 / psy=1 / psy_rd=1.00:0.00 / mixed_ref=1 / me_range=32 / chroma_me=1 / trellis=2 / 8x8dct=1 / cqm=0 / deadzone=21,11 / fast_pskip=0 / chroma_qp_offset=-4 / threads=6 / lookahead_threads=1 / sliced_threads=0 / nr=0 / decimate=0 / interlaced=0 / bluray_compat=0 / constrained_intra=0 / bframes=9 / b_pyramid=2 / b_adapt=2 / b_bias=0 / direct=3 / weightb=1 / open_gop=0 / weightp=2 / keyint=250 / keyint_min=25 / scenecut=40 / intra_refresh=0 / rc_lookahead=60 / rc=2pass / mbtree=1 / bitrate=1378 / ratetol=1.0 / qcomp=0.60 / qpmin=0 / qpmax=69 / qpstep=4 / cplxblur=20.0 / qblur=0.5 / vbv_maxrate=50000 / vbv_bufsize=62500 / nal_hrd=none / ip_ratio=1.40 / aq=1:1.00Default : YesForced : No
AudioID : 2Format : AC-3Format/Info : Audio Coding 3Mode extension : CM (complete main)Format settings, Endianness : BigCodec ID : A_AC3Duration : 49mn 9sBit rate mode : ConstantBit rate : 192 KbpsChannel(s) : 2 channelsChannel positions : Front: L RSampling rate : 48.0 KHzBit depth : 16 bitsCompression mode : LossyStream size : 67.5 MiB (12%)Default : YesForced : No

Скриншоты

Примечание

Рип делался с DVD5.
Автор рипа - Templar>666

_________________
Показать сообщения:    

Текущее время: Сегодня 04:20

Часовой пояс: GMT



Вы не можете начинать темы
Вы не можете отвечать на сообщения
Вы не можете редактировать свои сообщения
Вы не можете удалять свои сообщения
Вы не можете голосовать в опросах
Вы не можете прикреплять файлы к сообщениям
Вы не можете скачивать файлы
Наши партнеры: интернет магазин Ивановского трикотажа textilla.ru