Ивановский Торрент трекер
Яндекс.Погода
 

[Цитировать]
HUNTER

Свадьба Бэтси / Betsy's Wedding
Страна: США
Студия: Touchstone Pictures
Жанр: мелодрама, комедия
Год выпуска: 1990
Продолжительность: 1:30:14-Перевод 1: Профессиональный (многоголосый закадровый) 6 Канал СПб по заказу СТС (2002)
Перевод 2: Авторский (одноголосый закадровый) Алексей Михалёв
Оригинальная аудиодорожка: есть (английская)
Cубтитры: английские, испанские, французские
Сэмпл: Скачать-Режиссер: Алан Алда / Alan Alda-В ролях: Алан Алда, Джои Бишоп, Мэдлин Кан, Энтони ЛаПалья, Кэтрин О’Хара, Джо Пеши, Молли Рингуолд, Элли Шиди, Берт Янг, Джули Бовассо и др.-Описание: Бывают такие невероятные типы, готовые из самых лучших побуждений испортить все, что только можно. К таким как раз относится Эдди Хоппер, папа прелестной Бетси, собравшейся замуж за парня из богатой, респектабельной семьи. Не желая ударить в грязь лицом Эдди с упоением планирует грандиозную свадебную церемонию, мечтая поразить всех пышностью и размахом торжества. Лучше бы он был скромнее: вбухав в это дело кучу денег, неуемный отче и оглянуться не успел, как оказался на грани финансовой пропасти. Еще немного, и все его безумные закулисные махинации выплывут наружу. Или все-таки произойдет чудо, которое спасет фонтанирующего разорительными идеями Эдди?-Благодарности:
alex7691, smit009 - многоголоска СТС
pupsic197 - авторская озвучка А.Михалёва
друг pupsic197'a - оригинальный ДВД
Lexa1988-L1 - перерисовка меню и подсветок
*Sergeant_am* - реавторинг ДВД
-Меню: есть, русское, статичное-Тип релиза: DVD5 (Custom)
Контейнер: DVD-Video-Видео: MPEG 2, PAL, 720x576, 16:9, 25fps, ~5017 Кбит/сек
Аудио 1: AC3, 2 канала, 48кГц, 192кбит/сек (MVO)
Аудио 2: AC3, 2 канала, 48кГц, 192кбит/сек (AVO)
Аудио 3: AC3, 6 каналов, 48кГц, 448кбит/сек (Original)

Используемые программы

PGC Demux - разборка на составляющие
MuxMan - предварительная сборка
DVDRemake - окончательная сборка
Photoshop - Работа с меню
DVDSubEdit - работа с подсветками к меню

Скриншот финального проекта

Отчёт MediaInfo

Общее
Полное имя : C:\Downloads\Свадьба Бэтси DVD5 (Custom) MVO + AVO + Eng\VTS_01_3.VOB
Формат : MPEG-PS
Размер файла : 1024 Мбайт
Продолжительность : 24 м.
Режим общего битрейта : Переменный
Общий поток : 5925 Кбит/сек
Видео
Идентификатор : 224 (0xE0)
Формат : MPEG Video
Версия формата : Version 2
Профиль формата : Main@Main
Параметр BVOP формата : Да
Параметр матрицы формата : Выборочная
Параметр GOP формата : M=3, N=12
Структура изображения : Frame
Продолжительность : 24 м.
Вид битрейта : Переменный
Битрейт : 4975 Кбит/сек
Максимальный битрейт : 8000 Кбит/сек
Ширина : 720 пикселей
Высота : 576 пикселей
Соотношение сторон : 16:9
Частота кадров : 25,000 кадров/сек
Стандарт вещания : PAL
Цветовое пространство : YUV
Субдискретизация насыщенности : 4:2:0
Битовая глубина : 8 бит
Тип развёртки : Чересстрочная
Порядок развёртки : Верхнее поле первое
Метод сжатия : С потерями
Бит/(Пиксели*Кадры) : 0.480
Временной код первого кадра : 01:47:43:16
Оригинал временного кода : Group of pictures header
GOP, открыто/закрыто : Открыто
Размер потока : 860 Мбайт (84%)
Аудио #1
Идентификатор : 189 (0xBD)-128 (0x80)
Формат : AC-3
Формат/Информация : Audio Coding 3
Расширение режима : CM (complete main)
Параметр Endianness формата : Big
Режим смешивания : DVD-Video
Продолжительность : 24 м.
Вид битрейта : Постоянный
Битрейт : 192 Кбит/сек
Каналы : 2 канала
Расположение каналов : Front: L R
Частота : 48,0 КГц
Частота кадров : 31,250 кадров/сек (1536 spf)
Метод сжатия : С потерями
Задержка видео : -464 мс.
Размер потока : 33,2 Мбайт (3%)
Аудио #2
Идентификатор : 189 (0xBD)-129 (0x81)
Формат : AC-3
Формат/Информация : Audio Coding 3
Расширение режима : CM (complete main)
Параметр Endianness формата : Big
Режим смешивания : DVD-Video
Продолжительность : 24 м.
Вид битрейта : Постоянный
Битрейт : 192 Кбит/сек
Каналы : 2 канала
Расположение каналов : Front: L R
Частота : 48,0 КГц
Частота кадров : 31,250 кадров/сек (1536 spf)
Метод сжатия : С потерями
Задержка видео : -464 мс.
Размер потока : 33,2 Мбайт (3%)
Аудио #3
Идентификатор : 189 (0xBD)-130 (0x82)
Формат : AC-3
Формат/Информация : Audio Coding 3
Расширение режима : CM (complete main)
Параметр Endianness формата : Big
Режим смешивания : DVD-Video
Продолжительность : 24 м.
Вид битрейта : Постоянный
Битрейт : 448 Кбит/сек
Каналы : 6 каналов
Расположение каналов : Front: L C R, Side: L R, LFE
Частота : 48,0 КГц
Частота кадров : 31,250 кадров/сек (1536 spf)
Метод сжатия : С потерями
Задержка видео : -496 мс.
Размер потока : 77,4 Мбайт (8%)
Текст #1
Идентификатор : 189 (0xBD)-32 (0x20)
Формат : RLE
Формат/Информация : Run-length encoding
Режим смешивания : DVD-Video
Задержка видео : 840 мс.
Текст #2
Идентификатор : 189 (0xBD)-33 (0x21)
Формат : RLE
Формат/Информация : Run-length encoding
Режим смешивания : DVD-Video
Задержка видео : 3 с. 240 мс.
Текст #3
Идентификатор : 189 (0xBD)-34 (0x22)
Формат : RLE
Формат/Информация : Run-length encoding
Режим смешивания : DVD-Video
Задержка видео : 3 с. 120 мс.
Меню

Скриншоты меню

Скриншоты



Показать сообщения:    

Текущее время: 16-Дек 01:38

Часовой пояс: UTC ± 0


Вы не можете начинать темы
Вы не можете отвечать на сообщения
Вы не можете редактировать свои сообщения
Вы не можете удалять свои сообщения
Вы не можете голосовать в опросах
Вы не можете прикреплять файлы к сообщениям
Вы не можете скачивать файлы

!ВНИМАНИЕ!
Сайт не предоставляет электронные версии произведений, а занимается лишь коллекционированием и каталогизацией ссылок, присылаемых и публикуемых на форуме нашими читателями. Если вы являетесь правообладателем какого-либо представленного материала и не желаете, чтобы ссылка на него находилась в нашем каталоге, свяжитесь с нами, и мы незамедлительно удалим ее. Файлы для обмена на трекере предоставлены пользователями сайта, и администрация не несет ответственности за их содержание. Просьба не заливать файлы, защищенные авторскими правами, а также файлы нелегального содержания!