Важное объявление!
У Нас Все раздачи мультитрекерные, при нуле пиров в релизах, можете смело вставать на закачку!
 
Автор Сообщение

HUNTER

Стаж:
4 года 8 месяцев
Сообщений:
62044

Репутация: 101

[+] [-]
Вне форума [Профиль] [ЛС]

Сборник магических медитаций "Энергия Жизни"-

Год выпуска: 2012
Страна: Россия
Сайт производителя: http://yoga-secrets.ru
Тематика: Медитация
Тип материала: Мультимедийный диск-Продолжительность: 00:48:53
Автор: Анастасия Ян-Язык: Русский
Субтитры: Не требуется-Описание: Специально подобранный курс медитаций поможет вам избавиться от негативных стереотипов мышления.
Вы откроете все самое лучшее и светлое в себе и жизни, увидите новые возможности и раскроете свой внутренний потенциал и творческие способности.
Вы установите незримую связь со своим внутренним "Я" и осознаете себя прекрасной, сильной, свободной личностью.-Качество: HDRip
Формат: WMV
Видео кодек: WMVx
Аудио кодек: WMA
Видео: Windows Media Video 9, 1920х1080, 16:9, 1 207 Kbps, 25.000 fps
Аудио: WMA, 320 Kbps, 44100 Hz, 2Ch,-

MediaInfo

Код: copyText_writeLink('this.parentNode.parentNode.nextSibling.nextSibling'); General
Complete name : E:\Обучение\Сборник Энергия Жизни\AutoPlay\Videos\Медитация - Волшебная Гора с Анастасией Ян.wmv
Format : Windows Media
File size : 161 MiB
Duration : 10mn 3s
Overall bit rate mode : Constant
Overall bit rate : 2 230 Kbps
Maximum Overall bit rate : 10.4 Mbps
Encoded date : UTC 2012-04-19 18:47:27.279
Video
ID : 2
Format : VC-1
Format profile : MP@HL
Codec ID : WMV3
Codec ID/Info : Windows Media Video 9
Codec ID/Hint : WMV3
Description of the codec : Windows Media Video 9 - Professional
Duration : 10mn 3s
Bit rate mode : Constant
Bit rate : 10 000 Kbps
Width : 1 920 pixels
Height : 1 080 pixels
Display aspect ratio : 16:9
Frame rate : 25.000 fps
Bit depth : 8 bits
Scan type : Progressive
Compression mode : Lossy
Bits/(Pixel*Frame) : 0.193
Stream size : 720 MiB
Language : English
Audio
ID : 1
Format : WMA
Format version : Version 2
Codec ID : 161
Codec ID/Info : Windows Media Audio
Description of the codec : Windows Media Audio 9.2 - 320 kbps, 44 kHz, stereo (A/V) 1-pass CBR
Duration : 10mn 3s
Bit rate mode : Constant
Bit rate : 320 Kbps
Channel(s) : 2 channels
Sampling rate : 44.1 KHz
Bit depth : 16 bits
Stream size : 23.0 MiB (14%)
Language : English
- -

_________________
Показать сообщения:    

Текущее время: Сегодня 07:32

Часовой пояс: GMT



Вы не можете начинать темы
Вы не можете отвечать на сообщения
Вы не можете редактировать свои сообщения
Вы не можете удалять свои сообщения
Вы не можете голосовать в опросах
Вы не можете прикреплять файлы к сообщениям
Вы не можете скачивать файлы
Наши партнеры: интернет магазин Ивановского трикотажа textilla.ru