Важное объявление!
У Нас Все раздачи мультитрекерные, при нуле пиров в релизах, можете смело вставать на закачку!
Статистика раздачи
Размер:     |    Зарегистрирован:     |    Скачан:     |   
Нет
 
     
 
 
Автор Сообщение

HUNTER

Стаж:
5 лет 1 месяц
Сообщений:
68429

Репутация: 101

[+] [-]
Вне форума [Профиль] [ЛС]

Сбежавшая работа / Outsourced
Страна: США
Жанр: комедия
Год выпуска: 2006
Продолжительность: 01:42:16-Перевод: Профессиональный (многоголосый закадровый)
Cубтитры: английские, русские
Оригинальная аудиодорожка: английский-Режиссер: Джон Джефкоат / John Jeffcoat-В ролях: Джош Хэмилтон, Айеша Дхаркер, Ларри Пайн, Мэтт Смит, Арджун Матур-Описание:
Это - романтическая комедия о забавных взаимоотношениях людей различных культур, рассказывающая о неожиданных переменах в жизни обычного менеджера из Сиэтла, США, по имени Тодд Андерсон. Ничем не примечательный ход событий его жизни вдруг переворачивает сообщение босса о том, что новым местом его работы вскоре должен стать далекий Бомбей. Ужас происходящего усугубляется обидой от несправедливых обвинений в его адрес он выезжает в чужой, непонятный ему мир... То, что происходит впоследствии, заставляет героя вместе со зрителем не раз задуматься о том, что всем нам неплохо бы побольше знать об окружающем мире и что сбежавшая работа может стать для нас лучшим из возможных событий...-Сэмпл: Скачать-Тип релиза: WEB-DL 720p
Контейнер: MKV-Видео: 1280x714 (16:9); 3 826 Kbps; 23.976 fps; 0.175 bpp
Аудио 1: Russian; AC3; 48.0 KHz; 6ch; 384 Kbps
Аудио 2: English; AC3; 48.0 KHz; 6ch; 384 Kbps
Аудио 3: English; AAC; 48.0 KHz; 2ch; 160 Kbps
Формат субтитров: softsub (SRT)

MediaInfo

Format : Matroska
Format version : Version 4 / Version 2
File size : 3.59 GiB
Duration : 1h 42mn
Overall bit rate : 5 027 Kbps
Encoded date : UTC 2015-05-18 10:48:08
Writing application : mkvmerge v7.2.0 ('On Every Street') 64bit built on Sep 13 2014 15:52:10
Writing library : libebml v1.3.0 + libmatroska v1.4.1
Attachements : poster.jpg
_STATISTICS_WRITING_APP : mkvmerge v7.2.0 ('On Every Street') 64bit built on Sep 13 2014 15:52:10
_STATISTICS_WRITING_DATE_UTC : 2015-05-18 10:48:08
_STATISTICS_TAGS : BPS DURATION NUMBER_OF_FRAMES NUMBER_OF_BYTES
DURATION : 01:42:16.149000000
NUMBER_OF_FRAMES : 287632
NUMBER_OF_BYTES : 120507580
Video
ID : 1
Format : AVC
Format/Info : Advanced Video Codec
Format profile : High@L3.1
Format settings, CABAC : No
Format settings, ReFrames : 2 frames
Codec ID : V_MPEG4/ISO/AVC
Duration : 1h 42mn
Width : 1 280 pixels
Height : 714 pixels
Display aspect ratio : 16:9
Frame rate mode : Constant
Frame rate : 23.976 fps
Color space : YUV
Chroma subsampling : 4:2:0
Bit depth : 8 bits
Scan type : Progressive
Language : English
Default : Yes
Forced : No
Color primaries : BT.709
Transfer characteristics : BT.709
Matrix coefficients : BT.709
Audio #1
ID : 2
Format : AC-3
Format/Info : Audio Coding 3
Mode extension : CM (complete main)
Format settings, Endianness : Big
Codec ID : A_AC3
Duration : 1h 42mn
Bit rate mode : Constant
Bit rate : 384 Kbps
Channel(s) : 6 channels
Channel positions : Front: L C R, Side: L R, LFE
Sampling rate : 48.0 KHz
Bit depth : 16 bits
Compression mode : Lossy
Stream size : 281 MiB (8%)
Title : MVO
Language : Russian
Default : Yes
Forced : No
Audio #2
ID : 3
Format : AC-3
Format/Info : Audio Coding 3
Mode extension : CM (complete main)
Format settings, Endianness : Big
Codec ID : A_AC3
Duration : 1h 42mn
Bit rate mode : Constant
Bit rate : 384 Kbps
Channel(s) : 6 channels
Channel positions : Front: L C R, Side: L R, LFE
Sampling rate : 48.0 KHz
Bit depth : 16 bits
Compression mode : Lossy
Stream size : 281 MiB (8%)
Title : 5.1
Language : English
Default : No
Forced : No
Audio #3
ID : 4
Format : AAC
Format/Info : Advanced Audio Codec
Format profile : LC
Codec ID : A_AAC
Duration : 1h 42mn
Channel(s) : 2 channels
Channel positions : Front: L R
Sampling rate : 48.0 KHz
Compression mode : Lossy
Language : English
Default : No
Forced : No
Text #1
ID : 5
Format : UTF-8
Codec ID : S_TEXT/UTF8
Codec ID/Info : UTF-8 Plain Text
Language : Russian
Default : No
Forced : No
Text #2
ID : 6
Format : UTF-8
Codec ID : S_TEXT/UTF8
Codec ID/Info : UTF-8 Plain Text
Language : English
Default : No
Forced : No
Menu
00:00:00.000 : en:Spicy Food
00:03:35.000 : en:Welcome to Bombay
00:10:08.000 : en:You Like India?
00:18:49.000 : en:The Gola!
00:30:07.000 : en:Rubber
00:38:50.000 : en:Holi
00:44:30.000 : en:Todd's Speech
00:52:53.000 : en:You Talking to Me?
00:56:36.000 : en:The Other Gharapuri
01:02:33.000 : en:Ferry Blowing Up
01:08:19.000 : en:Meet in the Market
01:18:51.000 : en:Dave?
01:30:25.000 : en:Holiday in Goa
01:36:34.000 : en:The Return
01:38:46.000 : en:End Credits

Скриншоты


_________________
Показать сообщения:    

Текущее время: Сегодня 11:25

Часовой пояс: GMT



Вы не можете начинать темы
Вы не можете отвечать на сообщения
Вы не можете редактировать свои сообщения
Вы не можете удалять свои сообщения
Вы не можете голосовать в опросах
Вы не можете прикреплять файлы к сообщениям
Вы не можете скачивать файлы