Важное объявление!
У Нас Все раздачи мультитрекерные, при нуле пиров в релизах, можете смело вставать на закачку!
 
Автор Сообщение

HUNTER

Стаж:
4 года 9 месяцев
Сообщений:
65033

Репутация: 101

[+] [-]
Вне форума [Профиль] [ЛС]

Сатурн 3 / Saturn 3
Страна: Великобритания
Жанр: фантастика, триллер
Год выпуска: 1980
Продолжительность: 01:27:28
-
Перевод 1: Профессиональный (двухголосый закадровый)
Перевод 2: Одноголосый закадровый (VHS)
Cубтитры: русские (Full) (by romich, uski, PINK_FLOYD) и английские (Full, SDH)
Оригинальная аудиодорожка: английский
-
Режиссер: Стенли Донен / Stanley Donen
В ролях: Кирк Дуглас, Фарра Фосетт, Харви Кайтел, Эд Бишоп, Рой Дотрис, Дуглас Ламберт, Кристофер Мюнк
-
Описание: На космической станции «Титан», расположенной под поверхностью третьего спутника Сатурна, работают двое ученых — Адам и Алекс. Их идиллию нарушает прибытие на станцию капитана Джеймса. Он решил сделать из отдаленной станции полигон для испытания совершенного киборга нового поколения, который сделает его создателя самым могущественным человеком в Солнечной системе. Но первое же испытание киборга показывает, что Джеймс теряет контроль над своим творением, а в обладающем устрашающей мощью роботе заложена программа разрушения…
-

-
Сэмпл: https://www.sendspace.com/file/j20yt5
-
Тип релиза: BDRip 720p
Контейнер: MKV
Видео: 1280x690p (1.85:1), 24.000 fps, 6 516 Kbps
Аудио 1: русский / AC3 / 2.0 / 48 kHz / 224 kbps / 16 bit || DVO
Аудио 2: русский / AC3 / 2.0 / 48 kHz / 192 kbps / 16 bit || VO
Аудио 3: английский / AC3 / 5.1 / 48 kHz / 640 kbps / 16 bit || ENG
Формат субтитров: softsub (SRT)
Главы: есть

Доп. информация

Рип от kaspr (MediaClub) взято только видео, зв. дорожки взяты с kosmoaelita (Синхрон русских дорожек - kosmoaelita, за авторский перевод с VHS - спасибо videoman) русские субтитры немного подправлены, полные английские субтитры взяты из сети. Авторам спасибо.

MediaInfo

General
Unique ID : 182479476416254664130392883728972666730 (0x894844CF33214CE589A1D183AD3A576A)
Complete name : C:\Users\ALEX\Downloads\Фильмы\HD\Saturn 3.1980.BDRip.720p.2xRus.Eng.Subs.Chpt.mkv
Format : Matroska
Format version : Version 4 / Version 2
File size : 4.63 GiB
Duration : 1h 27mn
Overall bit rate : 7 571 Kbps
Encoded date : UTC 2014-10-15 14:56:36
Writing application : mkvmerge v6.6.0 ('The Edge Of The In Between') built on Dec 1 2013 17:55:00
Writing library : libebml v1.3.0 + libmatroska v1.4.1
Video
ID : 1
Format : AVC
Format/Info : Advanced Video Codec
Format profile : High@L4.1
Format settings, CABAC : Yes
Format settings, ReFrames : 8 frames
Codec ID : V_MPEG4/ISO/AVC
Duration : 1h 27mn
Bit rate : 6 516 Kbps
Width : 1 280 pixels
Height : 690 pixels
Display aspect ratio : 1.85:1
Frame rate mode : Constant
Frame rate : 24.000 fps
Color space : YUV
Chroma subsampling : 4:2:0
Bit depth : 8 bits
Scan type : Progressive
Bits/(Pixel*Frame) : 0.307
Stream size : 3.89 GiB (84%)
Title : MediaClub by kaspr
Writing library : x264 core 140 r2377+40 929f149 tMod [8-bit@4:2:0 X86_64]
Encoding settings : cabac=1 / ref=8 / deblock=1:-3:-3 / analyse=0x3:0x133 / me=umh / subme=11 / psy=1 / fade_compensate=0.00 / psy_rd=1.00:0.20 / mixed_ref=1 / me_range=32 / chroma_me=1 / trellis=2 / 8x8dct=1 / cqm=0 / deadzone=21,11 / fast_pskip=0 / chroma_qp_offset=-3 / threads=12 / lookahead_threads=3 / sliced_threads=0 / nr=0 / decimate=0 / interlaced=0 / bluray_compat=0 / constrained_intra=0 / fgo=0 / bframes=12 / b_pyramid=2 / b_adapt=2 / b_bias=0 / direct=3 / weightb=1 / open_gop=0 / weightp=2 / keyint=240 / keyint_min=24 / scenecut=40 / intra_refresh=0 / rc=2pass / mbtree=0 / bitrate=6516 / ratetol=1.0 / qcomp=0.60 / qpmin=0:0:0 / qpmax=69:69:69 / qpstep=4 / cplxblur=20.0 / qblur=0.5 / ip_ratio=1.40 / pb_ratio=1.30 / aq=2:0.80 / aq-sensitivity=10.00 / aq-factor=1.00:1.00:1.00 / aq2=0 / aq3=0
Language : English
Default : Yes
Forced : No
Audio #1
ID : 2
Format : AC-3
Format/Info : Audio Coding 3
Mode extension : CM (complete main)
Format settings, Endianness : Big
Codec ID : A_AC3
Duration : 1h 27mn
Bit rate mode : Constant
Bit rate : 224 Kbps
Channel(s) : 2 channels
Channel positions : Front: L R
Sampling rate : 48.0 KHz
Bit depth : 16 bits
Compression mode : Lossy
Stream size : 140 MiB (3%)
Title : DVO
Language : Russian
Default : Yes
Forced : No
Audio #2
ID : 3
Format : AC-3
Format/Info : Audio Coding 3
Mode extension : CM (complete main)
Format settings, Endianness : Big
Codec ID : A_AC3
Duration : 1h 27mn
Bit rate mode : Constant
Bit rate : 192 Kbps
Channel(s) : 2 channels
Channel positions : Front: L R
Sampling rate : 48.0 KHz
Bit depth : 16 bits
Compression mode : Lossy
Stream size : 120 MiB (3%)
Title : VO (VHS)
Language : Russian
Default : No
Forced : No
Audio #3
ID : 4
Format : AC-3
Format/Info : Audio Coding 3
Mode extension : CM (complete main)
Format settings, Endianness : Big
Codec ID : A_AC3
Duration : 1h 27mn
Bit rate mode : Constant
Bit rate : 640 Kbps
Channel(s) : 6 channels
Channel positions : Front: L C R, Side: L R, LFE
Sampling rate : 48.0 KHz
Bit depth : 16 bits
Compression mode : Lossy
Stream size : 400 MiB (8%)
Title : Original
Language : English
Default : No
Forced : No
Text #1
ID : 5
Format : UTF-8
Codec ID : S_TEXT/UTF8
Codec ID/Info : UTF-8 Plain Text
Title : Full (by romich, uski, PINK_FLOYD)
Language : Russian
Default : No
Forced : No
Text #2
ID : 6
Format : UTF-8
Codec ID : S_TEXT/UTF8
Codec ID/Info : UTF-8 Plain Text
Title : Full
Language : English
Default : No
Forced : No
Text #3
ID : 7
Format : UTF-8
Codec ID : S_TEXT/UTF8
Codec ID/Info : UTF-8 Plain Text
Title : SDH
Language : English
Default : No
Forced : No
Menu
00:00:00.000 : en:Chapter 01
00:11:26.000 : en:Chapter 02
00:16:18.625 : en:Chapter 03
00:23:44.625 : en:Chapter 04
00:30:02.625 : en:Chapter 05
00:36:43.000 : en:Chapter 06
00:44:13.625 : en:Chapter 07
00:51:49.000 : en:Chapter 08
00:59:00.000 : en:Chapter 09
01:05:41.625 : en:Chapter 10
01:13:06.000 : en:Chapter 11
01:18:55.000 : en:Chapter 12

Скриншоты


_________________
Показать сообщения:    

Текущее время: Сегодня 09:27

Часовой пояс: GMT



Вы не можете начинать темы
Вы не можете отвечать на сообщения
Вы не можете редактировать свои сообщения
Вы не можете удалять свои сообщения
Вы не можете голосовать в опросах
Вы не можете прикреплять файлы к сообщениям
Вы не можете скачивать файлы