Ивановский Торрент трекер
Яндекс.Погода
 

[Цитировать]
HUNTER

Сансет бульвар / Sunset Blvd.
Страна: США
Жанр: фильм-нуар, драма
Год выпуска: 1950
Продолжительность: 01:50:17
Перевод: Профессиональный (многоголосый закадровый) ГТРК Культура
Перевод: Профессиональный (многоголосый закадровый)
Перевод: Авторский (одноголосый закадровый) А.Гаврилов
Cубтитры: русские, английские
Оригинальная аудиодорожка: английский-Режиссер: Билли Уайлдер / Billy Wilder
В ролях: Уильям Холден, Глория Свенсон, Эрих фон Штрогейм, Нэнси Олсон, Фред Кларк, Ллойд Гоф, Джек Уэбб, Франклин Фэрнум, Ларри Дж. Блейк, Чарльз Дэйтон
Описание: Рассказ о стареющей звезде немого кино и циничном молодом человеке...
Сценарист Джо отчаянно нуждается в деньгах - его преследуют кредиторы. Не сумев продать сценарий, свою последнюю надежду, он бесцельно едет по дороге, когда видит двух человек, собирающихся конфисковать за долги его машину. Он давит на газ, прокалывается шина, и Джо заезжает на аллею, ведущую к обветшалому особняку, где слышит требовательный женский голос, приказывающий ему зайти в дом. Макс (Эрих фон Строхайм), сурового вида лысый дворецкий, указывает ему путь, и он предстает перед августейшими глазами Нормы Десмонд (Глория Суонсон), звезды немого кино. Пожаловавшись на текущее положение дел в киноиндустрии, она предлагает Джо написать сценарий, переработку "Саломеи", который она собирается использовать для своего возвращения в кино. Джо понимает, что это пустая надежда, но ему нужна работа. Пытающаяся быть соблазнительной, Норма настаивает, чтобы во время работы над сценарием Джо жил у нее. Под наблюдением Нормы и мрачноторжественного и молчаливого Макса Джо практически становится пленником актрисы и ее странного прошлого.
IMDb || КиноПоиск-Тип релиза: BDRip 720p [DON]
Контейнер: MKV
Видео: H.264/AVC, 982x720 at 23.976 fps, ~10442 Kbps
Аудио#1: Russian: 48 kHz, AC3, 2.0 ch, ~192.00 kbps |Многоголосый закадровый, ГТРК Культура|
Аудио#2: Russian: 48 kHz, AC3, 2.0 ch, ~192.00 kbps |Многоголосый закадровый|
Аудио#3: Russian: 48 kHz, AC3, 2.0 ch, ~192.00 kbps |Авторский одноголосый закадровый, А.Гаврилов|
Аудио#4: English: 48 kHz, AAC 2.0 ch, ~96 Kbps
Формат субтитров: softsub (SRT)
Сэмпл

MediaInfo

x264 Info

x264 [info]: frame I:801 Avg QP:14.58 size:148236
x264 [info]: frame P:27629 Avg QP:17.65 size: 74796
x264 [info]: frame B:130234 Avg QP:19.15 size: 49545
x264 [info]: consecutive B-frames: 0.6% 0.3% 1.3% 5.7% 11.3% 68.3% 7.1% 2.3% 3.2%
encoded 158664 frames, 4.92 fps, 10442.08 kb/s
Format : Matroska
Format version : Version 2
File size : 8.56 GiB
Duration : 1h 50mn
Overall bit rate : 11.1 Mbps
Movie name : "Sunset.Blvd.1950.720p.BluRay.AAC.2.0.x264-DON"
Encoded date : UTC 2013-01-20 19:03:54
Writing application : mkvmerge v5.0.1 ('Es ist Sommer') built on Nov 6 2011 16:23:40
Writing library : libebml v1.2.2 + libmatroska v1.3.0
Video
ID : 1
Format : AVC
Format/Info : Advanced Video Codec
Format profile : High@L4.1
Format settings, CABAC : Yes
Format settings, ReFrames : 11 frames
Codec ID : V_MPEG4/ISO/AVC
Duration : 1h 50mn
Width : 982 pixels
Height : 720 pixels
Display aspect ratio : 4:3
Frame rate : 23.976 fps
Color space : YUV
Chroma subsampling : 4:2:0
Bit depth : 8 bits
Scan type : Progressive
Title : Sunset Blvd. 1950 720p BluRay AAC 2.0 x264-DON
Writing library : x264 core 128 r2216kMod 198a7ea
Encoding settings : cabac=1 / ref=11 / deblock=1:-3:-3 / analyse=0x3:0x133 / me=umh / subme=11 / psy=1 / fade_compensate=0.00 / psy_rd=1.00:0.03 / mixed_ref=1 / me_range=32 / chroma_me=0 / trellis=2 / 8x8dct=1 / cqm=0 / deadzone=21,11 / fast_pskip=0 / chroma_qp_offset=-3 / threads=6 / lookahead_threads=1 / sliced_threads=0 / nr=0 / decimate=1 / interlaced=0 / bluray_compat=0 / constrained_intra=0 / bframes=8 / b_pyramid=2 / b_adapt=2 / b_bias=0 / direct=3 / weightb=1 / open_gop=0 / weightp=2 / keyint=250 / keyint_min=23 / scenecut=40 / intra_refresh=0 / rc_lookahead=150 / rc=crf / mbtree=1 / crf=17.1000 / qcomp=0.78 / qpmin=0 / qpmax=69 / qpstep=4 / vbv_maxrate=50000 / vbv_bufsize=62500 / crf_max=0.0 / nal_hrd=none / ip_ratio=1.40 / aq=1:0.65
Language : English
Default : Yes
Forced : No
Audio #1
ID : 2
Format : AC-3
Format/Info : Audio Coding 3
Mode extension : CM (complete main)
Codec ID : A_AC3
Duration : 1h 50mn
Bit rate mode : Constant
Bit rate : 192 Kbps
Channel(s) : 2 channels
Channel positions : Front: L R
Sampling rate : 48.0 KHz
Bit depth : 16 bits
Compression mode : Lossy
Stream size : 151 MiB (2%)
Title : MVO |Культура|
Language : Russian
Default : Yes
Forced : No
Audio #2
ID : 3
Format : AC-3
Format/Info : Audio Coding 3
Mode extension : CM (complete main)
Codec ID : A_AC3
Duration : 1h 50mn
Bit rate mode : Constant
Bit rate : 192 Kbps
Channel(s) : 2 channels
Channel positions : Front: L R
Sampling rate : 48.0 KHz
Bit depth : 16 bits
Compression mode : Lossy
Stream size : 151 MiB (2%)
Title : MVO
Language : Russian
Default : No
Forced : No
Audio #3
ID : 4
Format : AC-3
Format/Info : Audio Coding 3
Mode extension : CM (complete main)
Codec ID : A_AC3
Duration : 1h 50mn
Bit rate mode : Constant
Bit rate : 192 Kbps
Channel(s) : 2 channels
Channel positions : Front: L R
Sampling rate : 48.0 KHz
Bit depth : 16 bits
Compression mode : Lossy
Stream size : 151 MiB (2%)
Title : AVO |Гаврилов|
Language : Russian
Default : No
Forced : No
Audio #4
ID : 5
Format : AAC
Format/Info : Advanced Audio Codec
Format profile : LC
Codec ID : A_AAC
Duration : 1h 50mn
Channel(s) : 2 channels
Channel positions : Front: L R
Sampling rate : 48.0 KHz
Compression mode : Lossy
Language : English
Default : No
Forced : No
Text #1
ID : 6
Format : UTF-8
Codec ID : S_TEXT/UTF8
Codec ID/Info : UTF-8 Plain Text
Language : Russian
Default : No
Forced : No
Text #2
ID : 7
Format : UTF-8
Codec ID : S_TEXT/UTF8
Codec ID/Info : UTF-8 Plain Text
Language : English
Default : No
Forced : No
Menu
00:00:00.000 : :00:00:00.000
00:02:45.207 : :00:02:45.207
00:10:20.620 : :00:10:20.620
00:13:29.017 : :00:13:29.017
00:17:47.775 : :00:17:47.775
00:24:02.399 : :00:24:02.399
00:29:17.089 : :00:29:17.089
00:33:10.989 : :00:33:10.989
00:37:43.761 : :00:37:43.761
00:41:14.055 : :00:41:14.055
00:56:09.783 : :00:56:09.783
01:01:09.916 : :01:01:09.916
01:04:01.504 : :01:04:01.504
01:07:28.670 : :01:07:28.670
01:15:53.799 : :01:15:53.799
01:21:17.331 : :01:21:17.331
01:30:01.146 : :01:30:01.146
01:38:38.204 : :01:38:38.204
01:43:26.867 : :01:43:26.867

Скриншоты

Показать сообщения:    

Текущее время: 26-Сен 15:35

Часовой пояс: UTC - 1


Вы не можете начинать темы
Вы не можете отвечать на сообщения
Вы не можете редактировать свои сообщения
Вы не можете удалять свои сообщения
Вы не можете голосовать в опросах
Вы не можете прикреплять файлы к сообщениям
Вы не можете скачивать файлы

!ВНИМАНИЕ!
Сайт не предоставляет электронные версии произведений, а занимается лишь коллекционированием и каталогизацией ссылок, присылаемых и публикуемых на форуме нашими читателями. Если вы являетесь правообладателем какого-либо представленного материала и не желаете, чтобы ссылка на него находилась в нашем каталоге, свяжитесь с нами, и мы незамедлительно удалим ее. Файлы для обмена на трекере предоставлены пользователями сайта, и администрация не несет ответственности за их содержание. Просьба не заливать файлы, защищенные авторскими правами, а также файлы нелегального содержания!