Ивановский Торрент трекер
Яндекс.Погода
 

[Цитировать]
димитри37

Санаторий / Sanitarium
Страна: США
Жанр: Триллер
Год выпуска: 2013
Продолжительность: 01:47:42
Перевод: Профессиональный (многоголосный)
Cубтитры: нет-Режиссер: Брайан Ортиз / Bryan Ortiz, Брайан Рамирез / Bryan Ramirez, Керри Вальдеррама / Kerry Valderrama
В ролях: Лу Даймонд Филлипс, Роберт Инглунд, Дэвид Мазоуз, Джон Гловер, Крис Малки, Майра Лил, Уолтер Перез, Нова Кларк, Марк Канту
Описание: Перед нами антология, состоящая из трех получасовых историй, происходящих в психушке. Каждый эпизод начинается с вступительного слова доктора Стенсон, лечащего врача, комментирующего недавний приход нового пациента со словами: «История человека начинается…».-Доп. информация:
IMDB
Кинопоиск
Трейлер
Сэмпл-Качество видео: DVDRip
Формат видео: AVI
Видео: XviD; 624x304 (2.053); 1359 Kbps; 25 fps; 0,287 bpp
Аудио: AC3; 448 Kbps; CBR; 6 ch; 16 bit

MediaInfo

Общее
Полное имя : E:\Sanatoriy.2013.P.DVDRipp.avi
Формат : AVI
Формат/Информация : Audio Video Interleave
Размер файла : 1,37 Гбайт
Продолжительность : 1 ч. 47 м.
Общий поток : 1816 Кбит/сек
Видео
Идентификатор : 0
Формат : MPEG-4 Visual
Профиль формата : Advanced Simple@L5
Параметр BVOP формата : 1
Параметр QPel формата : Нет
Параметр GMC формата : Без точки перехода
Параметр матрицы формата : Default (H.263)
Идентификатор кодека : XVID
Идентификатор кодека/Подсказка : XviD
Продолжительность : 1 ч. 47 м.
Битрейт : 1359 Кбит/сек
Ширина : 624 пикселя
Высота : 304 пикселя
Соотношение сторон : 2,053
Частота кадров : 25,000 кадров/сек
Цветовое пространство : YUV
Субдискретизация насыщенности : 4:2:0
Битовая глубина : 8 бит
Тип развёртки : Прогрессивная
Метод сжатия : С потерями
Бит/(Пиксели*Кадры) : 0.287
Размер потока : 1,02 Гбайт (75%)
Библиотека кодирования : XviD 1.2.1 (UTC 2008-12-04)
Аудио
Идентификатор : 1
Формат : AC-3
Формат/Информация : Audio Coding 3
Расширение режима : CM (complete main)
Параметр Endianness формата : Big
Идентификатор кодека : 2000
Продолжительность : 1 ч. 47 м.
Вид битрейта : Постоянный
Битрейт : 448 Кбит/сек
Каналы : 6 каналов
Расположение каналов : Front: L C R, Side: L R, LFE
Частота : 48,0 КГц
Битовая глубина : 16 бит
Метод сжатия : С потерями
Размер потока : 345 Мбайт (25%)
Выравнивание : Разделение по промежуткам
Продолжительность промежутка : 40 мс. (1,00 видеокадр)
Время предзагрузки промежутка : 500 мс.

Скриншоты

-Источник:
Показать сообщения:    

Текущее время: 26-Сен 15:30

Часовой пояс: UTC - 1


Вы не можете начинать темы
Вы не можете отвечать на сообщения
Вы не можете редактировать свои сообщения
Вы не можете удалять свои сообщения
Вы не можете голосовать в опросах
Вы не можете прикреплять файлы к сообщениям
Вы не можете скачивать файлы

!ВНИМАНИЕ!
Сайт не предоставляет электронные версии произведений, а занимается лишь коллекционированием и каталогизацией ссылок, присылаемых и публикуемых на форуме нашими читателями. Если вы являетесь правообладателем какого-либо представленного материала и не желаете, чтобы ссылка на него находилась в нашем каталоге, свяжитесь с нами, и мы незамедлительно удалим ее. Файлы для обмена на трекере предоставлены пользователями сайта, и администрация не несет ответственности за их содержание. Просьба не заливать файлы, защищенные авторскими правами, а также файлы нелегального содержания!