Ивановский Торрент трекер
Яндекс.Погода
 

[Цитировать]
HUNTER

Сам себе инвестор-
Год выпуска: 2008
Страна: Россия
Сайт производителя: отсутствуeт
Тематика: финансы
Тип материала: Обучение
Продолжительность: 04:30:00
Автор: Videoforex
Язык: Русский
Субтитры: отсутствуют-Описание: Видеокурсы по Forex предоставляют уникальную возможность ознакомления с основами торговли на валютном рынке. Каждому знакомо выражение - "лучше один раз увидеть чем сто раз услышать", и в этом смысле видео лекции по Форекс лучший самоучитель. Видеокурсы освещают различные подходы в анализе ситуации и принятии решения, а наглядные примеры построения графиков и применения к ним различных инструментов помогут понять и прийти к правильному решению.Посмотрев, видеокурсы каждый из Вас найдет ответы на интересующие вопросы.-Качество: DVD5
Формат: AVI
Видео кодек: XviD
Аудио кодек: MP3
Видео: 720x576 (1.25:1), XviD MPEG-4, 718 kbps avg, 0.07 bit/pixel, 23.976 fps
Аудио: 44.100 kHz, 2 ch, 192.00 kbps avg,-

Содержание

1. Классификация финансовых рынков.
Что такое FOREX. Участники рынка, какими валютными парами торгуют на Форексе. Что такое торговая сессия.
2. Технический анализ финансовых рынков.
Как выглядят графики валют. Теория про технический анализ. Что такое тренд, какие бывают тренды. Что такое ценовой канал, какие бывают каналы, как строятся каналы на графиках. Ценовые, горизонтальные уровни. Понятия гэп на рынке. Технические фигуры разворота тренда и продолжения.
3. Фундаментальный анализ.
Влияние новостей, различных политических ситуаций на рынок. Из чего состоит фундаментальный анализ. Основные экономические индикаторы и их влияние на курс валюты.
4. Компьютерный анализ (индикаторы).
Виды индикаторов в торговом терминале. Как их использовать при анализе рынка. Примеры некоторых известных индикаторов
5. Японские свечи, модели прогнозирования цены.
Различные свечные модели. Основные принципы использования свечей при анализе рынка.
6. Волны Эллиотта и уровни Фибоначчи.
Основные понятия волн, виды волн, принципы работы с зигзагами, уровни Фибоначчи, треугольники, клин.
7. Техника торговли, управления капиталом, психология торговли.
Способы входа в рынок, торговля по тренду, как ставить стопы, техники при торговли: добавление, усреднение, локирование, переворот, управление риском, психология.

MediaInfo

Код: copyText_writeLink('this.parentNode.parentNode.nextSibling.nextSibling'); Общее
Полное имя : D:\обуч\Obuchayuschiy_videokurs_sam_sebe_investor_(FOREX)\Lection-1-Klassification.avi
Формат : AVI
Формат/Информация : Audio Video Interleave
Размер файла : 141 Мбайт
Продолжительность : 21 м.
Общий поток : 920 Кбит/сек
Видео
Идентификатор : 0
Формат : MPEG-4 Visual
Профиль формата : Advanced Simple@L5
Параметр BVOP формата : 2
Параметр QPel формата : Нет
Параметр GMC формата : Без точки перехода
Параметр матрицы формата : Default (H.263)
Режим смешивания : Сжатый битовый поток
Идентификатор кодека : XVID
Идентификатор кодека/Подсказка : XviD
Продолжительность : 21 м.
Битрейт : 718 Кбит/сек
Ширина : 720 пикселей
Высота : 576 пикселей
Соотношение сторон : 5:4
Частота кадров : 23,976 кадра/сек
Стандарт вещания : PAL
Цветовое пространство : YUV
Субдискретизация насыщенности : 4:2:0
Битовая глубина : 8 бит
Тип развёртки : Прогрессивная
Метод сжатия : С потерями
Бит/(Пиксели*Кадры) : 0.072
Размер потока : 110 Мбайт (78%)
Библиотека кодирования : XviD 1.1.0 (UTC 2005-11-22)
Аудио
Идентификатор : 1
Формат : MPEG Audio
Версия формата : Version 1
Профиль формата : Layer 3
Идентификатор кодека : 55
Идентификатор кодека/Подсказка : MP3
Продолжительность : 21 м.
Вид битрейта : Постоянный
Битрейт : 192 Кбит/сек
Каналы : 2 канала
Частота : 44,1 КГц
Метод сжатия : С потерями
Задержка видео : 26 мс.
Размер потока : 29,5 Мбайт (21%)
Выравнивание : Разделение по промежуткам
Продолжительность промежутка : 42 мс. (1,00 видеокадр)
Заголовок : Audio Stream

Скриншоты

-


Показать сообщения:    

Текущее время: 18-Дек 18:17

Часовой пояс: UTC ± 0


Вы не можете начинать темы
Вы не можете отвечать на сообщения
Вы не можете редактировать свои сообщения
Вы не можете удалять свои сообщения
Вы не можете голосовать в опросах
Вы не можете прикреплять файлы к сообщениям
Вы не можете скачивать файлы

!ВНИМАНИЕ!
Сайт не предоставляет электронные версии произведений, а занимается лишь коллекционированием и каталогизацией ссылок, присылаемых и публикуемых на форуме нашими читателями. Если вы являетесь правообладателем какого-либо представленного материала и не желаете, чтобы ссылка на него находилась в нашем каталоге, свяжитесь с нами, и мы незамедлительно удалим ее. Файлы для обмена на трекере предоставлены пользователями сайта, и администрация не несет ответственности за их содержание. Просьба не заливать файлы, защищенные авторскими правами, а также файлы нелегального содержания!